Wee Willie Winkie [1937][DVDRip][big dad e™]

Size 727.243 MB   0 seeders     Added 2010-12-18 08:00:46

Stream torrent
Starting‥ You need BitLord! Get it from BitLord.com
To download or stream you need BitLord. Visit them at BitLord.com

weewilliewinkie1937dvdr.jpg

Wee Willie Winkie (1937) B & W, (Sepia and Color Tinted)



Director: John Ford



Wee Willie Winkie is a 1937 American adventure film directed by John Ford. The screenplay by Julien Josephson and Ernest Pascal was based on a story by Rudyard Kipling. The film stars Shirley Temple, Victor McLaglen, and Cesar Romero in a story about the British presence in nineteenth century India.



William S. Darling and David S. Hall were nominated for an Academy Award for Best Art Direction.



Taken by her mother (June Lang) to live in India a young girl (Temple) gradually wins the heart of her feisty grandfather (C. Aubrey Smith), a colonel at a British army outpost. Before long she captures the heart of his entire regiment as well as his chief enemy (Ceasar Romeo), using her considerable charms to prevent a full scale war.



Media Info:

General

Complete name : J:SeedingWee Willie Winkie [1937][DVDRip][big_dad_e]Wee Willie Winkie [1937][DVDRip][big_dad_e].avi

Format : AVI

Format/Info : Audio Video Interleave

File size : 693 MiB

Duration : 1h 40mn

Overall bit rate : 969 Kbps

Writing application : Lavf51.12.1



Video

ID : 0

Format : MPEG-4 Visual

Format profile : Simple@L1

Format settings, BVOP : No

Format settings, QPel : No

Format settings, GMC : No warppoints

Format settings, Matrix : Default (H.263)

Codec ID : DX50

Codec ID/Hint : DivX 5

Duration : 1h 40mn

Bit rate : 924 Kbps

Width : 720 pixels

Height : 480 pixels

Display aspect ratio : 3:2

Frame rate : 23.976 fps

Standard : NTSC

Color space : YUV

Chroma subsampling : 4:2:0

Bit depth : 8 bits

Scan type : Progressive

Bits/(Pixel*Frame) : 0.112

Stream size : 661 MiB (95%)

Writing library : Lavc51.40.4



Audio

ID : 1

Format : MPEG Audio

Format version : Version 1

Format profile : Layer 3

Mode : Joint stereo

Mode extension : MS Stereo

Codec ID : 55

Codec ID/Hint : MP3

Duration : 1h 40mn

Bit rate mode : Constant

Bit rate : 32.0 Kbps

Channel(s) : 2 channels

Sampling rate : 48.0 KHz

Stream size : 22.9 MiB (3%)

Alignment : Aligned on interleaves

Interleave, duration : 24 ms (0.58 video frame)



File Scan:

Malwarebytes' Anti-Malware 1.50

www.malwarebytes.org



Database version: 5345



Windows 5.1.2600 Service Pack 3

Internet Explorer 8.0.6001.18702



12/17/2010 4:43:17 PM

mbam-log-2010-12-17 (16-43-17).txt



Scan type: Quick scan

Objects scanned: 6

Time elapsed: 22 second(s)



Memory Processes Infected: 0

Memory Modules Infected: 0

Registry Keys Infected: 0

Registry Values Infected: 0

Registry Data Items Infected: 0

Folders Infected: 0

Files Infected: 0



Memory Processes Infected:

(No malicious items detected)



Memory Modules Infected:

(No malicious items detected)



Registry Keys Infected:

(No malicious items detected)



Registry Values Infected:

(No malicious items detected)



Registry Data Items Infected:

(No malicious items detected)



Folders Infected:

(No malicious items detected)



Files Infected:

(No malicious items detected)

ALWAYS SEED & THANKS SEEDERS!

http://www.imdb.com/title/tt0029751/

e Cred to OP: phatwarez @ TPB




Wee Willie Winkie [1937][DVDRip][big_dad_e™]/Wee Willie Winkie [1937][DVDRip][big_dad_e™].avi 726.9 MB
Wee Willie Winkie [1937][DVDRip][big_dad_e™]/filesharing_not_illegal_yet.jpg 265.077 KB
Wee Willie Winkie [1937][DVDRip][big_dad_e™]/Wee Willie Winkie [1937][DVDRip][big_dad_e™].jpg 56.758 KB
Gathering some info...

Register and log in Isohunt and see no captcha anymore!

4000 symbols left
Hash f7f61c93ef5871434ce4605fac5647f041661c9d