imdb
rating

7.7
Ghost Adventures

Ghost Adventures (2008)

Documentary, Mystery, Reality

Full description

Ghost Adventures - S04E14 - Kells Irish Pub.[tNe.XViD].avi

Size 367.092 MB   0 seeders     Added 2010-12-18 12:06:47

Stream torrent
Starting‥ You need BitLord! Get it from BitLord.com
10
To download or stream you need BitLord. Visit them at BitLord.com
Format : AVI

Format/Info : Audio Video Interleave

File size : 350 MiB

Duration : 41mn 59s

Overall bit rate : 1 166 Kbps

Writing application : MEncoder SVN-r30881(20100311-gcc4.3.3)

Writing library : VirtualDub build 32839/release



Video

ID : 0

Format : MPEG-4 Visual

Format profile : Advanced Simple@L5

Format settings, BVOP : Yes

Format settings, QPel : No

Format settings, GMC : No warppoints

Format settings, Matrix : Default (H.263)

Codec ID : XVID

Codec ID/Hint : XviD

Duration : 41mn 59s

Bit rate : 1 026 Kbps

Width : 624 pixels

Height : 352 pixels

Display aspect ratio : 16:9

Frame rate : 29.970 fps

Color space : YUV

Chroma subsampling : 4:2:0

Bit depth : 8 bits

Scan type : Progressive

Bits/(Pixel*Frame) : 0.156

Stream size : 308 MiB (88%)

Writing library : XviD 1.2.1 (UTC 2008-12-04)



Audio

ID : 1

Format : MPEG Audio

Format version : Version 1

Format profile : Layer 3

Mode : Joint stereo

Mode extension : MS Stereo

Codec ID : 55

Codec ID/Hint : MP3

Duration : 41mn 59s

Bit rate mode : Constant

Bit rate : 128 Kbps

Channel(s) : 2 channels

Sampling rate : 48.0 KHz

Video delay : 20ms

Stream size : 38.4 MiB (11%)

Alignment : Split accross interleaves

Interleave, duration : 33 ms (1.00 video frame)

Interleave, preload duration : 500 ms

Writing library : LAME3.98



Ghost Adventures - S04E14 - Kells Irish Pub.[tNe.XViD].avi 367.092 MB
Gathering some info...

Register and log in Isohunt and see no captcha anymore!

4000 symbols left
Hash 10d17de5003126233682448f2a09f7e0d5524b17

Related torrents for "Ghost Adventures - S04E14 - Kells Irish Pub.[tNe.XViD].avi"

Torrent search:

episode 14 season 04