imdb
rating

8.6
Supernatural

Supernatural (2005)

Drama, Mystery, Sci-Fi & Fantasy

Full description

Supernatural S05D1 (retail)(ENG+NL SUBS) RHoek

Size 4.689 GB   0 seeders     Added 2010-12-18 20:02:31

Stream torrent
Starting‥ You need BitLord! Get it from 1BitLord.com
10
To download or stream you need BitLord. Visit them at BitLord.com
Opmerking voor al mijn uploads; vanaf heden zal ik niet meer bijseeden als daar om gevraagd wordt. Ik seed alles tot er minimaal 5 seeders over zijn (liever meer) en stop daarna mijn up. Ik ga langzaam aan stoppen met het gebeuren en op zoek naar andere uitdagingen. Ik probeer te regelen dat bij de lopende series (losse afleveringen) iemand anders de up regelt op dezelfde manier en met dezelfde kwaliteit als jullie gewend zijn.



Remark for all my uploads; from now on I will not re-seed anymore when asked. I will seed untill there are 5 or more seeders and then I stop. I am slowly retiring to have a look for something else.



FOR ENGLISH, PLEASE SCROLL DOWN!



~~~~~~~~~~~~~~~~~~~~~~~~~~~~~~~~~~~~~~~~~~~~~~~~~~~~~~~~~

eabdaaadi.jpg

~~~~~~~~~~~~~~~~~~~~~~~~~~~~~~~~~~~~~~~~~~~~~~~~~~~~~~~~~

VERHAALLIJN:

¯¯¯¯¯¯¯¯¯¯¯¯

Dean keert terug onder de levenden, maar voor hoe lang? Naar de hel en weer terug. Vier maanden na zijn afdaling naar de onderwereld klimt Dean Winchester weer uit zijn graf. Hij - en de gehele mensheid - zullen al snel voor nog ergere verschrikkingen komen te staan. Een koele engel waarschuwt hem dat Lucifer spoedig vrij zal zijn en de Apocalyps zal ontketenen. Met Sam aan zijn zijde gaat Dean de strijd aan met de duivelse wezens die nu de Prins der Duisternis dienen. Hij reist af naar de tijd voordat hij was geboren om zijn ouders te ontmoeten, en komt eindelijk achter de verbazingwekkende relatie tussen zijn lieve moeder en de demon met de gele ogen.



~~~~~~~~~~~~~~~~~~~~~~~~~~~~~~~~~~~~~~~~~~~~~~~~~~~~~~~~~

- Titel: Supernatural S05D1 (retail)(ENG+NL SUBS) RHoek

- Bron: Retail

- Formaat: DVD5

- Audio: 2.0

- Taal: Engels

- Ondertitelingen: Nederlands - Engels

- Menu: Ja

- Extra's: Nee

- Cover: Nee

- Label: Nee

- Genre : Drama | Fantasy | Horror | Mystery | Thriller



IMDb: http://www.imdb.com/title/tt0460681/

Officiële website: http://supernatural.warnerbros.com/



~~~~~~~~~~~~~~~~~~~~~~~~~~~~~~~~~~~~~~~~~~~~~~~~~~~~~~~~~

eabdbaadi.jpg

~~~~~~~~~~~~~~~~~~~~~~~~~~~~~~~~~~~~~~~~~~~~~~~~~~~~~~~~~

STORY LINE:

¯¯¯¯¯¯¯¯¯¯¯

This season focuses on Sam and Dean continuing to hunt demons, the introduction of a mysterious angel, Castiel (Misha Collins), as well as Sam Winchester's new powers, and Dean's return from Hell and his memory of his time spent there. This season also touches on the brothers' continuing hunt for Lilith, who is trying to release Lucifer on the world.



~~~~~~~~~~~~~~~~~~~~~~~~~~~~~~~~~~~~~~~~~~~~~~~~~~~~~~~~~

- Title: Supernatural S05D1 (retail)(ENG+NL SUBS) RHoek

- Source: Retail

- Format: DVD5

- Audio: 2.0

- Language: Engels

- Subtitles: Dutch - English

- Menu: Yes

- Extras: No

- Cover: No

- Label: No

- Genre : Drama | Fantasy | Horror | Mystery | Thriller



IMDb: http://www.imdb.com/title/tt0460681/

Official website: http://supernatural.warnerbros.com/



~~~~~~~~~~~~~~~~~~~~~~~~~~~~~~~~~~~~~~~~~~~~~~~~~~~~~~~~~

VIDEO AND AUDIO INFORMATION

¯¯¯¯¯¯¯¯¯¯¯¯¯¯¯¯¯¯¯¯¯¯¯¯¯¯¯¯¯¯

Video

ID                               : 224 (0xE0)

Format                           : MPEG Video

Format version                   : Version 2

Format profile                   : Main@Main

Format settings, BVOP            : Yes

Format settings, Matrix          : Default

Duration                         : 37mn 53s

Bit rate mode                    : Variable

Bit rate                         : 3 319 Kbps

Width                            : 720 pixels

Height                           : 576 pixels

Display aspect ratio             : 16:9

Frame rate                       : 25.000 fps

Standard                         : PAL

Color space                      : YUV

Chroma subsampling               : 4:2:0

Bit depth                        : 8 bits

Bits/(Pixel*Frame)               : 0.320

Stream size                      : 899 MiB (88%)

Writing library                  : TMPGEnc 2.524.63.181



Audio

ID                               : 128 (0x80)

Format                           : AC-3

Format/Info                      : Audio Coding 3

Mode extension                   : CM (complete main)

Duration                         : 37mn 53s

Bit rate mode                    : Constant

Bit rate                         : 384 Kbps

Channel(s)                       : 6 channels

Channel positions                : Front: L C R, Side: L R, LFE

Sampling rate                    : 48.0 KHz

Bit depth                        : 16 bits

Video delay                      : -229ms

Stream size                      : 104 MiB (10%)



*********************************

Brought to you by Ren Höek

*********************************
Supernatural S05D1 (retail)(ENG+NL SUBS) RHoek/Info/Supernatural info.txt 4.71 KB
Supernatural S05D1 (retail)(ENG+NL SUBS) RHoek/Supernatural/VTS_01_2.VOB 1.074 GB
Supernatural S05D1 (retail)(ENG+NL SUBS) RHoek/Supernatural/VTS_01_3.VOB 1.074 GB
Gathering some info...

Register and log in Isohunt and see no captcha anymore!

4000 symbols left
Hash 3e698d4e5e5ee6d64955b4eff73cf3a3f79e7606

Related torrents for "Supernatural S05D1 (retail)(ENG+NL SUBS) RHoek"

Torrent search:

english subs