Unstoppable.2010.R5.MP3-AUDIO-Xvid-Team B.S.Z

Size 1.598 GB   0 seeders     Added 2010-12-18 23:33:58

Stream torrent
Starting‥ You need BitLord! Get it from BitLord.com
To download or stream you need BitLord. Visit them at BitLord.com
unstoppablemovieposter.jpg   [size=3][color=deepskyblue]::Storyline:: <code>[size=3][color=red]Unstoppable is a drama about a runaway train carrying a cargo of toxic chemicals. Pits an engineer and his conductor in a race against time. They're chasing the runaway train in a separate locomotive and need to bring it under control before it derails on a curve and causes a toxic spill that will decimate a town. 85230863174952469266.png</code>   [size=3][color=deepskyblue]::Video Specification::   <code>[size=3][color=red]Video ID                               : 0 Format                           : MPEG-4 Visual Format profile                   : Simple@L3 Format settings, BVOP            : No Format settings, QPel            : No Format settings, GMC             : No warppoints Format settings, Matrix          : Default (H.263) Codec ID                         : XVID Codec ID/Hint                    : XviD Duration                         : 1h 34mn Bit rate                         : 2 121 Kbps Width                            : 704 pixels Height                           : 300 pixels Display aspect ratio             : 2.35:1 Frame rate                       : 25.000 fps Color space                      : YUV Chroma subsampling               : 4:2:0 Bit depth                        : 8 bits Scan type                        : Progressive Compression mode                 : Lossy Bits/(Pixel*Frame)               : 0.402 Stream size                      : 1.40 GiB (94%) Writing library                  : XviD 1.2.0.dev47 (UTC 2006-11-01)</code>   [size=3][color=deepskyblue]::AudioSpecification::     <code>[size=3][color=red]Audio ID                               : 1 Format                           : MPEG Audio Format version                   : Version 1 Format profile                   : Layer 3 Mode                             : Joint stereo Mode extension                   : MS Stereo Codec ID                         : 55 Codec ID/Hint                    : MP3 Bit rate mode                    : Constant Bit rate                         : 128 Kbps Channel(s)                       : 2 channels Sampling rate                    : 44.1 KHz Compression mode                 : Lossy Stream size                      : 24.9 MiB (2%) Alignment                        : Aligned on interleaves Interleave, duration             : 91 ms (2.27 video frames) Interleave, preload duration     : 26 ms</code>   81234839550700664447.png   vlcsnap2010121822h23m02.pngvlcsnap2010121822h23m28.pngvlcsnap2010121822h23m37.pngvlcsnap2010121822h23m45.pngvlcsnap2010121822h24m18.png
Unstoppable.2010.R5.MP3-AUDIO-Xvid-Team B.S.Z/Unstoppable.2010.R5.MP3-AUDIO-Xvid-Team B.S.Z.avi 1.598 GB
Gathering some info...

Register and log in Isohunt and see no captcha anymore!

4000 symbols left
Hash 3f12eb182a017a13e9882557e6f7127de42cb7d2

We have tons of cool stuff like this:

Torrent search:

mp3 2010