Rammstein-Sehnsucht[Live][voldemort5]

Size 20.63 MB   0 seeders     Added 2010-12-18 23:31:56

Stream torrent
Starting‥ You need BitLord! Get it from 1BitLord.com
To download or stream you need BitLord. Visit them at BitLord.com

rammstein120201024x768pu1.jpg



Rammstein is a German industrial metal band from Berlin, formed in 1994.The band consists of members Till Lindemann (lead vocals), Richard Z. Kruspe (lead guitar and backing vocals), Paul H. Landers (rhythm guitar, backing vocals), Oliver "Ollie" Riedel (bass guitar), Christoph "Doom" Schneider (drums and electronic percussion) and Christian "Flake" Lorenz (keyboards). They are widely accepted as part of the Neue Deutsche Härte scene, alongside bands such as Oomph!, Eisbrecher, and Die Krupps. Their sound has been dubbed as Tanzmetall (lit. "dance metal").



rammstein21600x1200.jpg



Their songs are usually in German, but they have also performed songs entirely or partially in other languages such as English, Spanish, French and Russian.As of 2009, they have sold over 15 million records worldwide.Rammstein's entire catalogue is published by Universal Music Group. Since their formation in 1994, Rammstein has had no changes in their band line-up nor have any members left the band. They have become infamous worldwide for their extravagant live shows, relying heavily on pyrotechnics and other effects.



rammstein2biglarge.jpg



Rammstein takes their name indirectly from the German town of Ramstein-Miesenbach, the site of the flight show disaster on 28 August 1988. The band's signature song, "Rammstein", is a commemoration of the disaster. In a short period before the band became well known, they performed using the name "Rammstein-Flugschau" (literally meaning "Rammstein-Flightshow").



sehnsucht2.jpg



Sehnsucht (German for "Longing", see Sehnsucht) is the second album by German industrial metal band Rammstein. It was released on 25 August 1997.



rammsteinliveausberlinzv9.jpg



The album booklet folds out to reveal six different covers, one for each band member (each photo depicting the member with bizarre facial-wear made out of ordinary kitchen objects like spatulas, spoons, forks etc.). The cover most commonly seen features Till Lindemann with an egg-lifter worn as a muzzle and bent forks over his eyes worn as sunglasses. The cover art was created by Austrian artist Gottfried Helnwein who created the Scorpions' Blackout cover too, which is very similar to the Sehnsucht cover and even the forks in both covers are the same. The album is the only album entirely in German to be certified Platinum by the RIAA in the United States.Völkerball (German for "Dodgeball", lit. "Peoples' ball") is the German Neue Deutsche Härte band Rammstein's live album/DVD set. It was released on November 17, 2006 in Europe, December 19, 2006 in Canada, and on September 18, 2007 in the U.S. The album was advertised within media by the Ich will live video featured on the DVD and Mann gegen Mann single.



The standard edition-packaging comes in both CD-sized and DVD-sized formats. The special edition features two DVDs and one CD. The extra DVD comes with the documentary 'Anakonda Im Netz' and the 'Making Of Reise, Reise album'. The limited edition has two DVDs, two CDs and a photobook.



rammsteinvlkerball.jpg



Völkerball (German for "Dodgeball", lit. "Peoples' ball") is the German Neue Deutsche Härte band Rammstein's live album/DVD set. It was released on November 17, 2006 in Europe, December 19, 2006 in Canada, and on September 18, 2007 in the U.S. The album was advertised within media by the Ich will live video featured on the DVD and Mann gegen Mann single.



dsc3593wa2.jpg





The standard edition-packaging comes in both CD-sized and DVD-sized formats. The special edition features two DVDs and one CD. The extra DVD comes with the documentary 'Anakonda Im Netz' and the 'Making Of Reise, Reise album'. The limited edition has two DVDs, two CDs and a photobook.





<span class="underline"><span class="italics"><span class="bold"><span style="color: orange">ScReEn ShOts</span></span></span></span>



rammsteinsehnsuchtlivem.jpg



rammsteinsehnsuchtlivem.jpg



rammsteinsehnsuchtlivem.jpg



rammsteinsehnsuchtlivem.jpg



rammsteinsehnsuchtlivem.jpg





njoyw.png



voldemortforumssignatur.png



cooltext437574446.png





<span class="underline"><span class="italics"><span class="bold"><span style="color: tomato">General</span></span></span></span>



Complete name:Rammstein-Sehnsucht[live].mp4

Format : MPEG-4

Format profile: Base Media / Version 2

Codec ID : mp42

File size : 19.7 MiB

Duration : 4mn 21s

Overall bit rate: 631 Kbps



<span class="underline"><span class="italics"><span class="bold"><span style="color: greenyellow">Video</span></span></span></span>



ID : 2

Format : AVC

Format/Info : Advanced Video Codec

Format profile: Baseline@L2.1

Format settings,CABAC: No

Format settings,ReFrames: 1 frame

Codec ID :avc1

Codec ID/Info: Advanced Video Coding

Duration : 4mn 21s

Bit rate mode: Variable

Bit rate : 503 Kbps

Maximum bit rate: 1 817 Kbps

Width : 480 pixels

Height : 360 pixels

Display aspect ratio: 4:3

Frame rate mode: Constant

Frame rate : 29.970 fps

Color space : YUV

Chroma subsampling: 4:2:0

Bit depth : 8 bits

Scan type : Progressive

Bits/(Pixel*Frame): 0.097

Stream size : 15.7 MiB (80%)



<span class="underline"><span class="italics"><span class="bold"><span style="color: violet">Audio</span></span></span></span>



ID : 1

Format : AAC

Format/Info : Advanced Audio Codec

Format version: Version 4

Format profile: LC

Codec ID : 40

Duration : 4mn 21s

Bit rate mode: Variable

Bit rate : 125 Kbps

Maximum bit rate: 140 Kbps

Channel(s) : 2 channels

Channel positions:Front: L R

Sampling rate: 44.1 KHz

Compression mode: Lossy

Stream size : 3.91 MiB (20%)




Rammstein-Sehnsucht[Live][voldemort5]/Rammstein-Sehnsucht[live].mp4 20.63 MB
Gathering some info...

Register and log in Isohunt and see no captcha anymore!

4000 symbols left
Hash c7c0a971786c8da49dace57cb29f043028415425

Related torrents for "Rammstein-Sehnsucht[Live][voldemort5]"