Ghost Lab

Ghost Lab (2009)

Discovery/Science, Horror/Supernatural, Mystery

Full description

Ghost Lab - S02E08 - The Innocent.[tNe.XViD].avi

Size 363.903 MB   0 seeders     Added 2010-12-19 01:14:19

Stream torrent
Starting‥ You need BitLord! Get it from BitLord.com
To download or stream you need BitLord. Visit them at BitLord.com
Format : AVI

Format/Info : Audio Video Interleave

File size : 347 MiB

Duration : 43mn 33s

Overall bit rate : 1 114 Kbps

Writing application : MEncoder SVN-r30881(20100311-gcc4.3.3)

Writing library : MPlayer



Video

ID : 0

Format : MPEG-4 Visual

Format profile : Advanced Simple@L5

Format settings, BVOP : Yes

Format settings, QPel : No

Format settings, GMC : No warppoints

Format settings, Matrix : Default (H.263)

Codec ID : XVID

Codec ID/Hint : XviD

Duration : 43mn 33s

Bit rate : 972 Kbps

Width : 624 pixels

Height : 352 pixels

Display aspect ratio : 16:9

Frame rate : 29.970 fps

Color space : YUV

Chroma subsampling : 4:2:0

Bit depth : 8 bits

Scan type : Progressive

Bits/(Pixel*Frame) : 0.148

Stream size : 303 MiB (87%)

Writing library : XviD 1.2.1 (UTC 2008-12-04)



Audio

ID : 1

Format : MPEG Audio

Format version : Version 1

Format profile : Layer 3

Mode : Joint stereo

Mode extension : MS Stereo

Codec ID : 55

Codec ID/Hint : MP3

Duration : 43mn 32s

Bit rate mode : Constant

Bit rate : 128 Kbps

Channel(s) : 2 channels

Sampling rate : 48.0 KHz

Video delay : 33ms

Stream size : 39.9 MiB (11%)

Alignment : Aligned on interleaves

Interleave, duration : 24 ms (0.72 video frame)

Interleave, preload duration : 504 ms



Ghost Lab - S02E08 - The Innocent.[tNe.XViD].avi 363.903 MB
Gathering some info...

Register and log in Isohunt and see no captcha anymore!

4000 symbols left
Hash 4f5b86646fbca28c2e5f99198598f2b3c600699f

Related torrents for "Ghost Lab - S02E08 - The Innocent.[tNe.XViD].avi"

Torrent search:

season 02 episode 08