Vidz S01 FS Xvid PBoy

Size 2.59 GB   0 seeders     Added 2010-12-19 05:08:05

Stream torrent
Starting‥ You need BitLord! Get it from BitLord.com
To download or stream you need BitLord. Visit them at BitLord.com
Vids (also known as Vidz) was a late-night, humorous video review show hosted by peroxide blond Welshman Nigel Buckland and the tall, long haired, bearded Glasgow native, Stef Gardiner .



The show was produced by Ideal World Productions for Channel 4 in the UK, and aired as part of Channel 4's overnight programming schedule, 4 Later.



Presenters Nige and Stef would review a selection of the week's new dvd and video releases in their own inimitable style from their mock-videostore located in Hamilton, near Glasgow. Various locations around the city of Glasgow were featured, as the presenters took to the streets and incorporated madcap storylines into the show, padding out the time between film reviews.



Format                           : AVI

Format/Info                      : Audio Video Interleave

File size                        : 206 MiB

Duration                         : 25mn 13s

Overall bit rate                 : 1 140 Kbps



Video

ID                               : 0

Format                           : MPEG-4 Visual

Format profile                   : AdvancedSimple@L5

Format settings, BVOP            : Yes

Format settings, QPel            : No

Format settings, GMC             : No warppoints

Format settings, Matrix          : Default (H.263)

Codec ID                         : XVID

Codec ID/Hint                    : XviD

Duration                         : 25mn 13s

Bit rate                         : 999 Kbps

Width                            : 680 pixels

Height                           : 536 pixels

Display aspect ratio             : 5:4

Frame rate                       : 25.000 fps

Resolution                       : 24 bits

Colorimetry                      : 4:2:0

Scan type                        : Progressive

Bits/(Pixel*Frame)               : 0.110

Stream size                      : 180 MiB (88%)

Writing library                  : XviD 1.2.1 (UTC 2008-12-04)



Audio

ID                               : 1

Format                           : MPEG Audio

Format version                   : Version 1

Format profile                   : Layer 3

Codec ID                         : 55

Codec ID/Hint                    : MP3

Duration                         : 25mn 13s

Bit rate mode                    : Constant

Bit rate                         : 128 Kbps

Channel(s)                       : 2 channels

Sampling rate                    : 48.0 KHz

Resolution                       : 16 bits

Stream size                      : 23.1 MiB (11%)

Alignment                        : Split accross interleaves

Interleave, duration             : 24 ms (0.60 video frame)



Cheers

PBoy
Vidz.S01.FS.Xvid.PBoy/Vidz - S01E01.avi 216.528 MB
Vidz.S01.FS.Xvid.PBoy/Vidz - S01E02.avi 215.601 MB
Vidz.S01.FS.Xvid.PBoy/Vidz - S01E03.avi 214.581 MB
Gathering some info...

Register and log in Isohunt and see no captcha anymore!

4000 symbols left
Hash c7d4aa1b6c161835c9455ab798db1db9fc5ef8e4