BBC Remembrance : The Sikh Story

Size 931.13 MB   0 seeders     Added 2010-12-19 23:06:21

Stream torrent
Starting‥ You need BitLord! Get it from BitLord.com
To download or stream you need BitLord. Visit them at BitLord.com
Documentary examining why followers of the Sikh religion were marked out as a 'martial race' under the British Empire, and how thousands of Sikh soldiers valiantly laid down their lives for Britain's freedom across two world wars.



With contributions from eminent historians, military experts and war veterans, the film features the last-ever interview with legendary WW2 Squadron Leader Mahinder Singh Pujji, and the first television broadcast of a rare audio recording of a WW1 Sikh prisoner of war, handed to Britain in 2010 after 94 years in German hands.





Video

ID : 1

Format : AVC

Format/Info : Advanced Video Codec

Format profile : High@L4.1

Format settings, CABAC : Yes

Format settings, ReFrames : 4 frames

Codec ID : V_MPEG4/ISO/AVC

Duration : 29mn 36s

Bit rate : 4000 Kbps

Width : 1280 pixels

Height : 720 pixels

Display aspect ratio : 16:9

Frame rate : 25.000 fps

Color space : YUV

Chroma subsampling : 4:2:0

Bit depth : 8 bits

Scan type : Progressive

Bits/(Pixel*Frame) : 0.174

Stream size : 830 MiB (93%)

Writing library : x264 core 105 r1732 2b04482

Language : English



Audio

ID : 2

Format : AC-3

Format/Info : Audio Coding 3

Mode extension : CM (complete main)

Codec ID : A_AC3

Duration : 29mn 36s

Bit rate mode : Constant

Bit rate : 192 Kbps

Channel(s) : 2 channels

Channel positions : Front: L R

Sampling rate : 48.0 KHz

Bit depth : 16 bits

Video delay : 9ms

Stream size : 40.7 MiB (5%)

Language : English



Text

ID : 3

Format : UTF-8

Codec ID : S_TEXT/UTF8

Codec ID/Info : UTF-8 Plain Text

Language : English

BBC.Remembrance.The.Sikh.Story.mkv 931.13 MB
Gathering some info...

Register and log in Isohunt and see no captcha anymore!

4000 symbols left
Hash 3cf1a0b234790d21d2cd59e8f7f8746d50152773