Flight

Flight (1958)

Anthology, Military/War

Full description

National Geographic - Air Hijack - Amritsar - India Flight IC814

Size 366.979 MB   0 seeders     Added 2010-12-19 23:04:55

Stream torrent
Starting‥ You need BitLord! Get it from 1BitLord.com
10
To download or stream you need BitLord. Visit them at BitLord.com
A documentary using dramatization , real footage and interviews with the people involved to narrate the story of one of the worst incidents in Indian aviation history.





General

Format : AVI

Format/Info : Audio Video Interleave

File size : 350 MiB

Duration : 46mn 18s

Overall bit rate : 1 057 Kbps

Writing application : VirtualDubMod 1.5.10.1 (build 2439/release)

Writing library : VirtualDubMod build 2439/release



Video

ID : 0

Format : MPEG-4 Visual

Format profile : Advanced Simple@L5

Format settings, BVOP : Yes

Format settings, QPel : No

Format settings, GMC : No warppoints

Format settings, Matrix : Default (H.263)

Muxing mode : Packed bitstream

Codec ID : XVID

Codec ID/Hint : XviD

Duration : 46mn 18s

Bit rate : 919 Kbps

Width : 464 pixels

Height : 352 pixels

Display aspect ratio : 4:3

Frame rate : 25.000 fps

Color space : YUV

Chroma subsampling : 4:2:0

Bit depth : 8 bits

Scan type : Progressive

Bits/(Pixel*Frame) : 0.225

Stream size : 304 MiB (87%)

Writing library : XviD 1.1.0 RC (UTC 2005-11-22)



Audio

ID : 1

Format : MPEG Audio

Format version : Version 1

Format profile : Layer 3

Mode : Joint stereo

Mode extension : MS Stereo

Codec ID : 55

Codec ID/Hint : MP3

Duration : 46mn 18s

Bit rate mode : Variable

Bit rate : 130 Kbps

Channel(s) : 2 channels

Sampling rate : 48.0 KHz

Stream size : 41.4 MiB (12%)

Alignment : Aligned on interleaves

Interleave, duration : 24 ms (0.60 video frame)

Interleave, preload duration : 596 ms

Writing library : LAME3.90.

Encoding settings : -m j -V 4 -q 2 -lowpass 17.6 --abr 130

Air Hijack - Amritsar - India [Flight IC814].avi 366.979 MB
Gathering some info...

Register and log in Isohunt and see no captcha anymore!

4000 symbols left
Hash c5f3992df9286b32444431cc57198b7c4e41d2ee

Related torrents for "National Geographic - Air Hijack - Amritsar - India Flight IC814"