imdb
rating

5.0
Stealth

Stealth (2005)

Action

Full description
quality   x264 fullhd bd dvdrip dvdr hd

Stealth 720p BRrip [Dual Audio] [Eng-Hindi]-vkkr

Size 1.558 GB   0 seeders     Added 2010-12-20 01:07:53

Stream torrent
Starting‥ You need BitLord! Get it from BitLord.com
10
To download or stream you need BitLord. Visit them at BitLord.com

postersite.png



zvbzx21.png

General

Complete name : Stealth 720p BRrip [Dual Audio] [Eng-Hindi]-=[RedHeart]=-Stealth 720p BRrip [Dual Audio] [Eng-Hindi]-=[RedHeart]=-.mkv

Format : Matroska

File size : 1.43 GiB

Duration : 2h 0mn

Overall bit rate : 1 694 Kbps





windowsmediaplayerfile.png

Video

ID : 1

Format : AVC

Format/Info : Advanced Video Codec

Format profile : Main@L3.1

Format settings, CABAC : Yes

Format settings, ReFrames : 2 frames

Muxing mode : Container profile=Unknown@3.1

Codec ID : V_MPEG4/ISO/AVC

Duration : 2h 0mn

Bit rate : 1 340 Kbps

Nominal bit rate : 1 434 Kbps

Width : 1 280 pixels

Height : 544 pixels

Stream size : 1.13 GiB (79%)





musicfile1.png

Audio #1

ID : 2

Format : AC-3

Format/Info : Audio Coding 3

Mode extension : CM (complete main)

Codec ID : A_AC3

Duration : 2h 0mn

Bit rate mode : Constant

Bit rate : 192 Kbps

Channel(s) : 2 channels

Channel positions : Front: L R

Sampling rate : 48.0 KHz

Bit depth : 16 bits

Stream size : 166 MiB (11%)

Title : RedHeart

Language : Hindi



musicfile1.png

Audio #2

ID : 3

Format : AC-3

Format/Info : Audio Coding 3

Mode extension : CM (complete main)

Codec ID : A_AC3

Duration : 2h 0mn

Bit rate mode : Constant

Bit rate : 128 Kbps

Channel(s) : 6 channels

Channel positions : Front: L C R, Side: L R, LFE

Sampling rate : 48.0 KHz

Bit depth : 16 bits

Stream size : 111 MiB (8%)

Title : RedHeart





ogtw21.gif

vlcsnap2010120623h25m44.png

shot0046.png

shot0088s.png

shot0036x.png

shot0071.png





enjoyo.png



numberoneg.gif

phpthumbgeneratedthumbnw.gif



slqp2p1.gif




Stealth 720p BRrip [Dual Audio] [Eng-Hindi]-=[RedHeart]=-/Sample.mkv 24.006 MB
Stealth 720p BRrip [Dual Audio] [Eng-Hindi]-=[RedHeart]=-/Stealth 720p BRrip [Dual Audio] [Eng-Hindi]-=[RedHeart]=-.mkv 1.534 GB
Gathering some info...

Register and log in Isohunt and see no captcha anymore!

4000 symbols left
Hash 2aeb7f1538dca4062e61535b9ed1a8a9b3fb7651

Related torrents for "Stealth 720p BRrip [Dual Audio] [Eng-Hindi]-vkkr"

Torrent search:

english hd hindi bd