imdb
rating

8.8
Inception

Inception (2010)

Action, Adventure, Mystery, Science Fiction, Thriller

Full description
quality   dvdr dvdrip cam dvd telesync

Inception 2010 BRRip 1080p Hindi-vkkr

Size 2.621 GB   0 seeders     Added 2010-12-20 15:09:10

Stream torrent
Starting‥ You need BitLord! Get it from BitLord.com
10
To download or stream you need BitLord. Visit them at BitLord.com

hddesirockers.png

inception2010.jpg

dvdbluraylogo.gif





imdb3.png

http://www.imdb.com/title/tt1375666/





zvbzx21.png

General

Complete name : F:EXDESI.COMInception 2010 BRRip 1080p by imkhan -=[TDT]=-Inception 2010 BRRip 1080p by imkhan -=[TDT]=-.mkv

Format : Matroska

File size : 2.43 GiB

Duration : 2h 22mn

Overall bit rate : 2 448 Kbps

Movie name : Inception 2010 BRRip 1080p by imkhan -=[TDT]=-

Encoded date : UTC 2010-12-19 18:13:49

Writing application : mkvmerge v4.2.0 ('No Talking') built on Jul 28 2010 18:38:23

Writing library : libebml v1.0.0 + libmatroska v1.0.0





windowsmediaplayerfile.png

Video

ID : 1

Format : AVC

Format/Info : Advanced Video Codec

Format profile : High@L4.0

Format settings, CABAC : Yes

Format settings, ReFrames : 4 frames

Muxing mode : Container profile=Unknown@4.0

Codec ID : V_MPEG4/ISO/AVC

Duration : 2h 22mn

Bit rate : 2 271 Kbps

Nominal bit rate : 2 226 Kbps

Width : 1 920 pixels

Height : 800 pixels

Display aspect ratio : 2.40:1

Frame rate : 25.000 fps

Original frame rate : 23.976 fps

Resolution : 24 bits

Colorimetry : 4:2:0

Scan type : Progressive

Bits/(Pixel*Frame) : 0.059

Stream size : 2.25 GiB (93%)

Title : imkhan

Writing library : x264 core 98 r1649 c54c47d

Encoding settings : cabac=1 / ref=3 / deblock=1:-1:-1 / analyse=0x3:0x113 / me=hex / subme=5 / psy=1 / psy_rd=0.00:0.00 / mixed_ref=1 / me_range=16 / chroma_me=1 / trellis=1 / 8x8dct=1 / cqm=0 / deadzone=21,11 / fast_pskip=1 / chroma_qp_offset=0 / threads=3 / sliced_threads=0 / nr=0 / decimate=1 / interlaced=0 / constrained_intra=0 / bframes=16 / b_pyramid=2 / b_adapt=1 / b_bias=0 / direct=3 / weightb=1 / weightp=2 / keyint=250 / keyint_min=25 / scenecut=40 / intra_refresh=0 / rc_lookahead=40 / rc=2pass / mbtree=1 / bitrate=2226 / ratetol=1.0 / qcomp=0.60 / qpmin=10 / qpmax=51 / qpstep=4 / cplxblur=20.0 / qblur=0.5 / ip_ratio=1.40 / aq=1:1.00

Language : Hindi





musicfile1.png

Audio

ID : 2

Format : MPEG Audio

Format version : Version 1

Format profile : Layer 3

Codec ID : A_MPEG/L3

Codec ID/Hint : MP3

Duration : 2h 22mn

Bit rate mode : Constant

Bit rate : 128 Kbps

Channel(s) : 2 channels

Sampling rate : 44.1 KHz

Resolution : 16 bits

Stream size : 130 MiB (5%)

Title : imkhan

Language : Hindi





ogtw21.gif

inception2010brrip1080p.jpg

inception2010brrip1080p.jpg

inception2010brrip1080pe.jpg

inception2010brrip1080pf.jpg

inception2010brrip1080p.jpg

inception2010brrip1080p.jpg





enjoyo.png



numberoneg.gif

phpthumbgeneratedthumbnw.gif



slqp2p1.gif




Inception 2010 BRRip 1080p by imkhan -=[TDT]=-/Inception 2010 BRRip 1080p by imkhan -=[TDT]=-.mkv 2.608 GB
Inception 2010 BRRip 1080p by imkhan -=[TDT]=-/Inception 2010 BRRip Sample.mkv 12.456 MB
Gathering some info...

Register and log in Isohunt and see no captcha anymore!

4000 symbols left
Hash 8436e3624d724ca79806b0af6b68932f308c64b3

Related torrents for "Inception 2010 BRRip 1080p Hindi-vkkr"

Torrent search:

hindi 2010 fullhd bd