Rush Hour Triology BRRip 720p Dual Audio [Hin-Eng]-vkkr

Size 1.5 GB   0 seeders     Added 2010-12-20 16:09:30

Stream torrent
Starting‥ You need BitLord! Get it from 1BitLord.com
7.1
To download or stream you need BitLord. Visit them at BitLord.com

21145745.jpg





imdb3.png

http://www.imdb.com/title/tt0120812/





zvbzx21.png

General

Complete name : F:EXDESI.COMRush Hour Triology BRRip 720p Dual Audio [Hin-Eng] by imkhan -=[TDT]=-Rush.Hour.1.1998.BRRip 720p Dual Audio [Hin-Eng] by imkhan -=[TDT]=-.mkv

Format : Matroska

File size : 500 MiB

Duration : 1h 37mn

Overall bit rate : 715 Kbps

Movie name : Rush.Hour.1.1998.BRRip 720p Dual Audio [Hin-Eng] by imkhan -=[TDT]=-

Encoded date : UTC 2010-11-13 04:27:54

Writing application : mkvmerge v4.2.0 ('No Talking') built on Jul 28 2010 18:38:23

Writing library : libebml v1.0.0 + libmatroska v1.0.0





windowsmediaplayerfile.png

Video

ID : 1

Format : AVC

Format/Info : Advanced Video Codec

Format profile : High@L3.1

Format settings, CABAC : Yes

Format settings, ReFrames : 5 frames

Muxing mode : Container profile=Unknown@3.1

Codec ID : V_MPEG4/ISO/AVC

Duration : 1h 37mn

Nominal bit rate : 607 Kbps

Width : 1 280 pixels

Height : 544 pixels

Display aspect ratio : 2.35:1

Original display aspect ratio : 2.35:1

Frame rate : 23.976 fps

Resolution : 24 bits

Colorimetry : 4:2:0

Scan type : Progressive

Bits/(Pixel*Frame) : 0.036

Title : imkhan

Writing library : x264 core 68 r1183M f21daff





musicfile1.png

Audio #1

ID : 2

Format : MPEG Audio

Format version : Version 2

Format profile : Layer 3

Codec ID : A_MPEG/L3

Codec ID/Hint : MP3

Duration : 1h 37mn

Bit rate mode : Constant

Bit rate : 64.0 Kbps

Channel(s) : 2 channels

Sampling rate : 22.05 KHz

Resolution : 16 bits

Stream size : 44.8 MiB (9%)

Title : imkhan

Writing library : LAME3.98.2

Language : Hindi





musicfile1.png

Audio #2

ID : 3

Format : AAC

Format/Info : Advanced Audio Codec

Format version : Version 4

Format profile : LC

Format settings, SBR : Yes

Format settings, PS : No

Codec ID : A_AAC

Duration : 1h 37mn

Channel(s) : 2 channels

Channel positions : L R

Sampling rate : 44.1 KHz

Resolution : 16 bits





ogtw21.gif

rushhour11998brrip720pd.jpg

rushhour11998brrip720pd.jpg

rushhour11998brrip720pd.jpg







RushHour22001BluRayByAdrianDennis.jpg



imdb3.png

http://www.imdb.com/title/tt0266915/





zvbzx21.png

General

Complete name : F:EXDESI.COMRush Hour Triology BRRip 720p Dual Audio [Hin-Eng] by imkhan -=[TDT]=-Rush.Hour.2.2001.BRRip 720p Dual Audio [Hin-Eng] by imkhan -=[TDT]=-.mkv

Format : Matroska

File size : 469 MiB

Duration : 1h 30mn

Overall bit rate : 728 Kbps

Movie name : Rush.Hour.2.2001.BRRip 720p Dual Audio [Hin-Eng] by imkhan -=[TDT]=-

Encoded date : UTC 2010-11-13 04:26:22

Writing application : mkvmerge v4.2.0 ('No Talking') built on Jul 28 2010 18:38:23

Writing library : libebml v1.0.0 + libmatroska v1.0.0





windowsmediaplayerfile.png

Video

ID : 1

Format : AVC

Format/Info : Advanced Video Codec

Format profile : High@L3.1

Format settings, CABAC : Yes

Format settings, ReFrames : 5 frames

Muxing mode : Container profile=Unknown@3.1

Codec ID : V_MPEG4/ISO/AVC

Duration : 1h 29mn

Nominal bit rate : 586 Kbps

Width : 1 280 pixels

Height : 544 pixels

Display aspect ratio : 2.35:1

Original display aspect ratio : 2.35:1

Frame rate : 23.976 fps

Resolution : 24 bits

Colorimetry : 4:2:0

Scan type : Progressive

Bits/(Pixel*Frame) : 0.035

Title : imkhan

Writing library : x264 core 68 r1183M f21daff





musicfile1.png

Audio #1

ID : 2

Format : MPEG Audio

Format version : Version 2

Format profile : Layer 3

Codec ID : A_MPEG/L3

Codec ID/Hint : MP3

Duration : 1h 30mn

Bit rate mode : Constant

Bit rate : 64.0 Kbps

Channel(s) : 2 channels

Sampling rate : 22.05 KHz

Resolution : 16 bits

Stream size : 41.2 MiB (9%)

Title : imkhan

Writing library : LAME3.98.2

Language : Hindi





musicfile1.pngAudio #2

ID : 3

Format : AAC

Format/Info : Advanced Audio Codec

Format version : Version 4

Format profile : LC

Format settings, SBR : Yes

Format settings, PS : No

Codec ID : A_AAC

Duration : 1h 30mn

Channel(s) : 2 channels

Channel positions : L R

Sampling rate : 48.0 KHz

Resolution : 16 bits

Title : imkhan





ogtw21.gif

rushhour22001brrip720pd.jpg

rushhour22001brrip720pd.jpg







3.jpg



imdb3.png

http://www.imdb.com/title/tt0293564/



zvbzx21.png

General

Complete name : F:EXDESI.COMRush Hour Triology BRRip 720p Dual Audio [Hin-Eng] by imkhan -=[TDT]=-Rush.Hour.3.2007.BRRip 720p Dual Audio [Hin-Eng] by imkhan -=[TDT]=-.mkv

Format : Matroska

File size : 440 MiB

Duration : 1h 30mn

Overall bit rate : 677 Kbps

Movie name : Rush.Hour.3.2007.BRRip 720p Dual Audio [Hin-Eng] by imkhan -=[TDT]=-

Encoded date : UTC 2010-11-13 04:37:01

Writing application : mkvmerge v4.2.0 ('No Talking') built on Jul 28 2010 18:38:23

Writing library : libebml v1.0.0 + libmatroska v1.0.0







windowsmediaplayerfile.png

Video

ID : 1

Format : AVC

Format/Info : Advanced Video Codec

Format profile : High@L3.1

Format settings, CABAC : Yes

Format settings, ReFrames : 5 frames

Muxing mode : Container profile=Unknown@3.1

Codec ID : V_MPEG4/ISO/AVC

Duration : 1h 30mn

Nominal bit rate : 577 Kbps

Width : 1 280 pixels

Height : 532 pixels

Display aspect ratio : 2.40:1

Original display aspect ratio : 2.40:1

Frame rate : 23.976 fps

Resolution : 24 bits

Colorimetry : 4:2:0

Scan type : Progressive

Bits/(Pixel*Frame) : 0.035

Title : imkhan

Writing library : x264 core 68 r1183M f21daff





musicfile1.pngAudio #1

ID : 2

Format : MPEG Audio

Format version : Version 2

Format profile : Layer 3

Codec ID : A_MPEG/L3

Codec ID/Hint : MP3

Duration : 1h 30mn

Bit rate mode : Constant

Bit rate : 64.0 Kbps

Channel(s) : 2 channels

Sampling rate : 22.05 KHz

Resolution : 16 bits

Stream size : 41.6 MiB (9%)

Title : imkhan

Language : Hindi





musicfile1.png

Audio #2

ID : 3

Format : AAC

Format/Info : Advanced Audio Codec

Format version : Version 4

Format profile : LC

Format settings, SBR : Yes

Format settings, PS : No

Codec ID : A_AAC

Duration : 1h 30mn

Channel(s) : 2 channels

Channel positions : L R

Sampling rate : 48.0 KHz

Resolution : 16 bits





ogtw21.gif

rushhour32007brrip720pd.jpg

rushhour32007brrip720pd.jpg

rushhour32007brrip720pd.jpg









enjoyo.png



numberoneg.gif

phpthumbgeneratedthumbnw.gif



slqp2p1.gif




Rush Hour Triology BRRip 720p Dual Audio [Hin-Eng] by imkhan -=[TDT]=-/Rush.Hour.1.1998.BRRip 720p Dual Audio [Hin-Eng] by imkhan -=[TDT]=-.mkv 524.506 MB
Rush Hour Triology BRRip 720p Dual Audio [Hin-Eng] by imkhan -=[TDT]=-/Rush.Hour.2.2001.BRRip 720p Dual Audio [Hin-Eng] by imkhan -=[TDT]=-.mkv 491.644 MB
Rush Hour Triology BRRip 720p Dual Audio [Hin-Eng] by imkhan -=[TDT]=-/Rush.Hour.3.2007.BRRip 720p Dual Audio [Hin-Eng] by imkhan -=[TDT]=-.mkv 461.295 MB
Gathering some info...

Register and log in Isohunt and see no captcha anymore!

4000 symbols left
Hash bcc65c935aef0e87a2e6eb2d758a5d6a153d8d84