Legacy

Legacy (1998)

Action, Adventure, Drama

Full description

TRON Legacy 2010 TS XViD Hive-CM8 READNFO

Size 1.649 GB   0 seeders     Added 2010-12-22 07:14:56

Stream torrent
Starting‥ You need BitLord! Get it from 1BitLord.com
To download or stream you need BitLord. Visit them at BitLord.com

<span style="color: Blue"><center><span class="bold">ajos7.jpg



TRON Legacy 2010 TS XViD READNFO Hive-CM8





</span>Thx Hive

<span class="bold">

CM8 Doing It Right The First Time :D



Source:



TRON Legacy 2010 TS XViD-IMAGiNE

thx Imagine for this great early and synced release, i know its hard to cam such a dark movie in this quality



Encode:



like always i try to make even a good release better. i noticed bit too much brightness which results in noise and grain in the video.

More brightness is good so you can see a bit more details in the picture, but the sideeffect is noise and grain.

it doesnt look too good on my tv, so i tried to reduce brightness and condensate with contrast and added a noise filter for the grain along with chroma. The result looks better to me. <span style="color:Red">made a comparison pic which you can look @ here</span>



http://screenshotcomparison.com/comparison/13468



http://screenshotcomparison.com/comparison/13509



So what you see is what you get, you loose a bit brightness but gain a clearer picture and quality.



For the Audio, well cleaned it up too, removed noise,hiss,hum and some scratches, cant do anything about the slight metallic voices here and there.

all in all watchable



Video: 720x304 @bitrate 1600 2pass

Audio: AC3 2.0 Stereo

Sample: yes included</span>



<span class="bold">

http://www.imdb.com/title/tt1104001/





General

Complete name : TRON.Legacy.2010.TS.XViD.Hive-CM8.READNFO.avi

Format : AVI

Format/Info : Audio Video Interleave

File size : 1.54 GiB

Duration : 1h 57mn

Overall bit rate : 1 870 Kbps

Writing application : Nandub v1.0rc2

Writing library : Nandub build 1853/release



Video

ID : 0

Format : MPEG-4 Visual

Format profile : Advanced Simple@L5

Format settings, BVOP : Yes

Format settings, QPel : Yes

Format settings, GMC : No warppoints

Format settings, Matrix : Default (H.263)

Muxing mode : Packed bitstream

Codec ID : XVID

Codec ID/Hint : XviD

Duration : 1h 57mn

Bit rate : 1 604 Kbps

Width : 720 pixels

Height : 304 pixels

Display aspect ratio : 2.35:1

Frame rate : 23.976 fps

Color space : YUV

Chroma subsampling : 4:2:0

Bit depth : 8 bits

Scan type : Progressive

Bits/(Pixel*Frame) : 0.306

Stream size : 1.32 GiB (86%)

Writing library : XviD 1.2.1 (UTC 2008-12-04)

</span><span class="bold">

Audio

ID : 1

Format : AC-3

Format/Info : Audio Coding 3

Mode extension : CM (complete main)

Codec ID : 2000

Duration : 1h 57mn

Bit rate mode : Constant

Bit rate : 256 Kbps

Channel(s) : 2 channels

Channel positions : Front: L R

Sampling rate : 48.0 KHz

Bit depth : 16 bits

Video delay : 24ms

Stream size : 215 MiB (14%)

Alignment : Split accross interleaves

Interleave, duration : 42 ms (1.00 video frame)

Interleave, preload duration : 500 ms







Jeff Bridges ... Kevin Flynn / Clu

Garrett Hedlund ... Sam Flynn

Olivia Wilde ... Quorra

Bruce Boxleitner ... Alan Bradley / Tron

James Frain ... Jarvis

Beau Garrett ... Gem

Michael Sheen ... Castor / Zuse





Sam Flynn, the tech-savvy 27-year-old son of Kevin Flynn, looks into his father's disappearance and finds himself pulled into the same world of fierce programs and gladiatorial games where his father has been living for 20 years. Along with Kevin's loyal confidant, father and son embark on a life-and-death journey across a visually-stunning cyber universe that has become far more advanced and exceedingly dangerous.





36311996.png

trtr.png

trtrtr.png

trtrtrtr.png

trtrtrtrtr.png

trtrtrtrtrtr.png

trtrtrtrtrtrtr.png

trtrtrtrtrtrtrtr.png

45319183.png







[video=http://www.youtube.com/watch?v=L9szn1QQfas]







Greetz



iNK,LUSi,,MAGNET,CLASSiFiED,THC,LEGi0N,IMAGiNE,ViSiON,WBZ,FLAWL3SS,NOVA

Rapeseed,D2U,SAFC,goldadvance,MEMORY100,KaN1vE,Unevano,Pinnz,Wayne,Mr Hive

and all P2P groups

Great Work Guys :D

</span></center></span>




TRON.Legacy.2010.TS.XViD.Hive-CM8.READNFO/Torrent downloaded from Demonoid.me.txt 46 B
TRON.Legacy.2010.TS.XViD.Hive-CM8.READNFO/TRON.Legacy.2010.TS.XViD.READNFO.Hive-CM8.nfo 5.099 KB
TRON.Legacy.2010.TS.XViD.Hive-CM8.READNFO/TRON.Legacy.2010.TS.XViD.Hive-CM8.READNFO.avi 1.649 GB
Gathering some info...

Register and log in Isohunt and see no captcha anymore!

4000 symbols left
Hash 6a2050a7b77c627e7498d08e5cbd6b3b613bccfb

Related torrents for "TRON Legacy 2010 TS XViD Hive-CM8 READNFO"

Torrent search:

telesync 2010