Chhupa Rustam-A Musical Thriller (2001) - DvdRip - 1CD - Xvid

Size 724.93 MB   0 seeders     Added 2010-12-22 23:15:18

Stream torrent
Starting‥ You need BitLord! Get it from 1BitLord.com
10
To download or stream you need BitLord. Visit them at BitLord.com
Chhupa Rustam-A Musical Thriller (2001) - DvdRip - 1CD - Xvid

80692large.jpg

64623_8we5inyn.png

<div class="quote">General
Complete name :Chhupa Rustam-A Musical Thriller
IMDB : http://www.imdb.com/title/tt0279021/
Format : AVI
Format/Info : Audio Video Interleave
Format profile : OpenDML
File size : 691 MiB
Duration : 2h 7mn
Overall bit rate : 756 Kbps
Writing application : AVI-Mux GUI 1.17.8.3, Feb 16 201019:42:50
Video
ID : 0
Format : MPEG-4 Visual
Format profile : Advanced Simple@L5
Format settings, BVOP : Yes
Format settings, QPel : No
Format settings, GMC : No warppoints
Format settings, Matrix : Default (H.263)
Muxing mode : Packed bitstream
Codec ID : XVID
Codec ID/Hint : XviD
Duration : 2h 7mn
Bit rate : 625 Kbps
Width : 624 pixels
Height : 320 pixels
Display aspect ratio : 1.950
Frame rate : 23.976 fps
Color space : YUV
Chroma subsampling : 4:2:0
Bit depth : 8 bits
Scan type : Progressive
Bits/(Pixel*Frame) : 0.130
Stream size : 571 MiB (83%)
Writing library : XviD 1.2.1 (UTC 2008-12-04)

Audio
ID : 1
Format : MPEG Audio
Format version : Version 1
Format profile : Layer 3
Mode : Joint stereo
Mode extension : MS Stereo
Codec ID : 55
Codec ID/Hint : MP3
Duration : 2h 7mn
Bit rate mode : Constant
Bit rate : 128 Kbps
Channel(s) : 2 channels
Sampling rate : 48.0 KHz
Stream size : 117 MiB (17%)
Alignment : Aligned on interleaves
Interleave, duration : 957 ms (22.95 video frames)
Interleave, preload duration : 216 ms
Title : Title_1
Writing library : LAME3.98r
Encoding settings : -m j -V 4 -q 2 -lowpass 17 -b 128</div>
Chhupa Rustam - A Musical Thriller (2001) - DvdRip - 1CD - Xvid/Chhupa Rustam - A Musical Thriller (2001) - DvdRip - 1CD - Xvid.avi 724.93 MB
Gathering some info...

Register and log in Isohunt and see no captcha anymore!

4000 symbols left
Hash 5131555408981632aeb35ab64600a6ffd0b02096