Eesan (2010)1CD - (New Source) - PDVDRip - XViD

Size 748.055 MB   11 seeders     Added 2010-12-23 19:04:27

Stream torrent
Starting‥ You need BitLord! Get it from BitLord.com
To download or stream you need BitLord. Visit them at BitLord.com
Eesan (2010)1CD - (New Source) - PDVDRip - XViD
eesanmovieposterswallpa.jpg

64623_8we5inyn.png

<div class="quote">
General
Complete name : Eesan (2010)1CD - (New Source) - PDVDRip - XViD.avi
Format : AVI
Format/Info : Audio Video Interleave
File size : 713 MiB
Duration : 2h 52mn
Overall bit rate : 577 Kbps

Video
ID : 0
Format : MPEG-4 Visual
Format profile : Simple@L3
Format settings, BVOP : No
Format settings, QPel : No
Format settings, GMC : No warppoints
Format settings, Matrix : Default (H.263)
Codec ID : XVID
Codec ID/Hint : XviD
Duration : 2h 52mn
Bit rate : 403 Kbps
Width : 672 pixels
Height : 272 pixels
Display aspect ratio : 2.471
Frame rate : 29.970 fps
Color space : YUV
Chroma subsampling : 4:2:0
Bit depth : 8 bits
Scan type : Progressive
Compression mode : Lossy
Bits/(Pixel*Frame) : 0.074
Stream size : 498 MiB (70%)
Writing library : XviD 1.1.2 (UTC 2006-11-01)

Audio
ID : 1
Format : MPEG Audio
Format version : Version 1
Format profile : Layer 3
Mode : Joint stereo
Mode extension : MS Stereo
Codec ID : 55
Codec ID/Hint : MP3
Duration : 2h 52mn
Bit rate mode : Constant
Bit rate : 160 Kbps
Channel(s) : 2 channels
Sampling rate : 48.0 KHz
Compression mode : Lossy
Stream size : 198 MiB (28%)
Alignment : Split accross interleaves
Interleave, duration : 24 ms (0.72 video frame)
</div>
Eesan (2010)1CD - (New Source) - PDVDRip - XViD/Eesan (2010)1CD - (New Source) - PDVDRip - XViD.avi 748.055 MB
Eesan (2010)1CD - (New Source) - PDVDRip - XViD/Torrent Tracked By Team MJY.txt 345 B
Gathering some info...

Register and log in Isohunt and see no captcha anymore!

4000 symbols left
Hash e3722377d4ad36fa9deac83cda4e4cbebaf2d98e