Jeremih feat 50 cent - Down on me[HD][voldemort5] Verified

Size 69.285 MB   0 seeders     Added 2010-12-25 05:14:23

Stream torrent
Starting‥ You need BitLord! Get it from BitLord.com
10
To download or stream you need BitLord. Visit them at BitLord.com

jeremihdownonmefeat50ce.jpg



"Down on Me" is a song by American singer Jeremih.[1] The song features rapper 50 Cent, and is the second single off his sophomore album All About You. The song was released to iTunes on September 28, 2010 by Def Jam.



<span class="underline"><span class="italics"><span class="bold"><span style="color: orange">Music Video</span></span></span></span>



The official music video was released on December 15. A 3D music video was released on 50 Cent's blog.The official music video was shot in Los Angeles by director Colin Tilley on November 17, 2010 and was released on December 17.



> <span class=<span class="italics"><span class="bold"><span style="color: greenyellow">Charts</span></span></span>



The song entered the UK Singles Chart at number 151 on week ending 20th November 2010[4] and climbed to number 87 the following week.



downloadjeremihfeat50ce.png





<span class="underline"><span class="italics"><span class="bold"><span style="color: orangered">Lyrics</span></span></span></span>





<span class="underline"><span class="italics"><span class="bold">Track name</span></span></span> : <span class="underline"><span class="italics"><span class="bold"><span style="color: orangered"> Down On Me Lyrics</span></span></span></span>



<span class="underline"><span class="italics"><span class="bold">Artist </span></span></span> : <span class="underline"><span class="italics"><span class="bold"><span style="color: orangered">Jeremih ft 50 Cent</span></span></span></span>



[50 cent]

She want it I can tell she want it

want me to push up on it

fore she know when I’m all on it

we get the party going liquor flowing this is fire

50 and Jeremih number 1 there’s nothing higher

(won’t you go and)

get it get it (I see you baby)

work it work it, work it, work it

(won’t you, just put it down)

get it get it

work it work it

break it break it down…



[Jeremih]

Ok she headed to the dancefloor and she slowly start to poppin it

something like my wrist piece everybody got to watching it

girl you got that secret treasure, i’m gon’ put a lock on it

don’t care what they say I would be stupid to be not on it (Ms. Vicky)

heard you go that sticky

lets go and take 9 shots we’ll just call it fifty

and I’m gon lick it lick it lick it

till her hicky have her River running

keep you running til you empty

(bang bang bang bang)

Oh you look so sweet

what you work in Ballys

look at your pysique

girl you are a beauty well I am a beast

they must have been trippin to let me off a leash



[Jeremih Chorus]

I love the way you grind with that booty on me

shorty you a dime why you looking lonely

we’ll buy another round and it’s all on me

as long as I’m around put it down on me

just put it down on me

put it down on me

down down on me

put it down on me

don’t throw it off the mound

show me how its gon be

girl all I really want is you down on me

put it down on me



[50 cent]

Systems thumping party jumping

shorty she’s a perfect 10

she rock her hips than roll her hips

than drop it down like it’s nothing

she shaped just like an hour glass

she see how fast an hour passed

time flies when I’m on that ass

but I won’t put our sh-t on blast

work it like a pro pro pro

sit and watch it go go go

do her thing all on the floor

she bounce it fast and shake it slow

so sexual incredible

she beautiful she edible

I got her I won’t let her go

I aint seen nothing better yo

look at how she twurk it

the way she work it

make me wanna hit it hit it

heaven when I’m in it in it

if I do not fit, I’m gonna make it

girl you can take it

don’t stop get it get it



[Chorus]



[Jeremih]

Say you independant

get it from your momma

tell me if you with it

do you really wanna wanna

baby when you see me

you know I be on it

can you keep it up

put it all up on me

(repeated)



[Chorus]

[End]





81234839550700664447.png



jeremihfeat50centsdowno.jpg



jeremihfeat50centsdowno.jpg



jeremihfeat50centsdowno.jpg



jeremihfeat50centsdowno.jpg



jeremihfeat50centsdowno.jpg



njoyw.png



lordvoldemortrcstyle.jpg



feeltheh33t.png



cooltext437574446.png





<span class="underline"><span class="italics"><span class="bold"><span style="color: tomato">General</span></span></span></span>





Complete name :Jeremih feat 50 cEnTs - Down on me[HD][voldemort5].avi

Format : AVI

Format/Info : Audio Video Interleave

File size : 66.1 MiB

Duration : 3mn 51s

Overall bit rate: 2 392 Kbps



<span class="underline"><span class="italics"><span class="bold"><span style="color: greenyellow">Video</span></span></span></span>



ID : 0

Format : MPEG-4 Visual

Codec ID : MP42

Codec ID/Info : Microsoft MPEG-4 v2 (pre-standard)

Codec ID/Hint : Microsoft

Duration : 3mn 51s

Bit rate : 2 251 Kbps

Width : 1 280 pixels

Height : 720 pixels

Display aspect ratio: 16:9

Frame rate : 30.000 fps

Compression mode: Lossy

Bits/(Pixel*Frame): 0.081

Stream size : 62.2 MiB (94%)



<span class="underline"><span class="italics"><span class="bold"><span style="color: violet">Audio</span></span></span></span>



ID : 1

Format : MPEG Audio

Format version: Version 1

Format profile: Layer 3

Mode : Joint stereo

Mode extension: MS Stereo

Codec ID : 55

Codec ID/Hint : MP3

Duration : 3mn 51s

Bit rate mode : Constant

Bit rate : 128 Kbps

Channel(s) : 2 channels

Sampling rate : 44.1 KHz

Compression mode: Lossy

Stream size : 3.54 MiB (5%)

Alignment : Aligned on interleaves

Interleave,duration: 26 ms (0.78 video frame)




Jeremih feat 50 cEnTs - Down on me[HD][voldemort5]/Jeremih feat 50 cEnTs - Down on me[HD][voldemort5].avi 69.285 MB
Gathering some info...

Register and log in Isohunt and see no captcha anymore!

4000 symbols left
Hash 4563e3a4d4449e469326ef2e2a119ae027e44804