Tees Maar Khan (2010) Untouched - PDVD Rip - XviD

Size 951.447 MB   0 seeders     Added 2010-12-25 11:04:08

Stream torrent
Starting‥ You need BitLord! Get it from BitLord.com
8.1
To download or stream you need BitLord. Visit them at BitLord.com
Tees_Maar_Khan_Poster.jpg

64623_8we5inyn.png

<div class="quote">General
Complete name : Tees Maar Khan (2010) 1CD - Untouched - PDvdRip - Team MJY.avi
Format : AVI
Format/Info : Audio Video Interleave
File size : 907 MiB
Duration : 1h 58mn
Overall bit rate : 1 068 Kbps
Writing application : Lavf52.0.0

Video
ID : 0
Format : xvid
Codec ID : xvid
Duration : 1h 58mn
Bit rate : 991 Kbps
Width : 352 pixels
Height : 288 pixels
Display aspect ratio : 1.222
Frame rate : 25.000 fps
Standard : PAL
Bits/(Pixel*Frame) : 0.391
Stream size : 842 MiB (93%)

Audio
ID : 1
Format : MPEG Audio
Format version : Version 1
Format profile : Layer 3
Mode : Joint stereo
Mode extension : MS Stereo
Codec ID : 55
Codec ID/Hint : MP3
Duration : 1h 58mn
Bit rate mode : Constant
Bit rate : 64.0 Kbps
Channel(s) : 2 channels
Sampling rate : 48.0 KHz
Stream size : 54.4 MiB (6%)
Alignment : Aligned on interleaves
Interleave, duration : 24 ms (0.60 video frame)
Writing library : LAME3.96.1</div>
Tees Maar Khan (2010) 1CD - Untouched - PDvdRip - Team MJY/Tees Maar Khan (2010) 1CD - Untouched - PDvdRip - Team MJY.avi 951.447 MB
Tees Maar Khan (2010) 1CD - Untouched - PDvdRip - Team MJY/Torrent Tracked By MJY.txt 343 B
Gathering some info...

Register and log in Isohunt and see no captcha anymore!

4000 symbols left
Hash fc0f4b107e099f9219eb8e01b1899745ad088dd8