Asatha Povathu Yar 10-OCT-2010 [maxxcrime] [h33t]

Size 416.324 MB   0 seeders     Added 2010-12-25 23:07:51

Stream torrent
Starting‥ You need BitLord! Get it from 1BitLord.com
To download or stream you need BitLord. Visit them at BitLord.com
<span style="color:red">General</span>
Complete name : Asatha Povathu Yar 10-OCT-2010 [maxxcrime] [h33t].avi
Format : AVI
Format/Info : Audio Video Interleave
Format profile : OpenDML
File size : 397 MiB
Duration : 56mn 29s
Overall bit rate : 983 Kbps
Writing application : AVI-Mux GUI 1.17.8.3, Feb 16 201019:42:50

<span style="color:red">Video</span>
ID : 0
Format : MPEG-4 Visual
Format profile : Advanced Simple@L5
Format settings, BVOP : Yes
Format settings, QPel : No
Format settings, GMC : No warppoints
Format settings, Matrix : Default (H.263)
Muxing mode : Packed bitstream
Codec ID : XVID
Codec ID/Hint : XviD
Duration : 56mn 29s
Bit rate : 899 Kbps
Width : 640 pixels
Height : 480 pixels
Display aspect ratio : 4:3
Frame rate : 25.000 fps
Color space : YUV
Chroma subsampling : 4:2:0
Bit depth : 8 bits
Scan type : Progressive
Bits/(Pixel*Frame) : 0.117
Stream size : 363 MiB (91%)
Writing library : XviD 1.2.1 (UTC 2008-12-04)

<span style="color:red">Audio</span>
ID : 1
Format : MPEG Audio
Format version : Version 1
Format profile : Layer 3
Mode : Joint stereo
Mode extension : MS Stereo
Codec ID : 55
Codec ID/Hint : MP3
Duration : 56mn 29s
Bit rate mode : Constant
Bit rate : 80.0 Kbps
Channel(s) : 2 channels
Sampling rate : 32.0 KHz
Stream size : 32.3 MiB (8%)
Alignment : Aligned on interleaves
Interleave, duration : 896 ms (22.41 video frames)
Interleave, preload duration : 216 ms
Title : apy T80 2_0ch 384Kbps DELAY 0ms
Writing library : LAME3.98r
Encoding settings : -m j -V 4 -q 2 -lowpass 13.5 -b 80

vlcsnap-2010-12-25-11h43m07s184.png
vlcsnap-2010-12-25-11h43m18s41.png
vlcsnap-2010-12-25-11h43m23s86.png
vlcsnap-2010-12-25-11h43m26s125.png
Asatha Povathu Yar 10-OCT-2010 [maxxcrime] [h33t].avi 416.324 MB
Gathering some info...

Register and log in Isohunt and see no captcha anymore!

4000 symbols left
Hash 5831b876a337f8c4ebf6834f457bdf2091cc74a3

Related torrents for "Asatha Povathu Yar 10-OCT-2010 [maxxcrime] [h33t]"

Torrent search:

2010