Ghost Lab

Ghost Lab (2009)

Discovery/Science, Horror/Supernatural, Mystery

Full description

Ghost Lab S02E10 Path Of A Killer WS DSR XviD TVrip-[NY2] avi

Size 367.65 MB   0 seeders     Added 2010-12-27 19:03:50

Stream torrent
Starting‥ You need BitLord! Get it from BitLord.com
To download or stream you need BitLord. Visit them at BitLord.com
Huge thanks to DSR and ponku!

Format : AVI
Format/Info : Audio Video Interleave
File size : 351 MiB
Duration : 43mn 8s
Overall bit rate : 1 136 Kbps
Writing application : MEncoder Sherpya-SVN-r30818-4.2.4
Writing library : MPlayer

Video
ID : 0
Format : MPEG-4 Visual
Format profile : Simple@L3
Format settings, BVOP : No
Format settings, QPel : No
Format settings, GMC : No warppoints
Format settings, Matrix : Default (H.263)
Codec ID : XVID
Codec ID/Hint : XviD
Duration : 43mn 8s
Bit rate : 994 Kbps
Width : 512 pixels
Height : 288 pixels
Display aspect ratio : 16:9
Frame rate : 29.970 fps
Color space : YUV
Chroma subsampling : 4:2:0
Bit depth : 8 bits
Scan type : Progressive
Bits/(Pixel*Frame) : 0.225
Stream size : 307 MiB (87%)
Writing library : XviD 1.2.1 (UTC 2008-12-04)

Audio
ID : 1
Format : MPEG Audio
Format version : Version 1
Format profile : Layer 3
Mode : Joint stereo
Mode extension : MS Stereo
Codec ID : 55
Codec ID/Hint : MP3
Duration : 43mn 6s
Bit rate mode : Variable
Bit rate : 128 Kbps
Channel(s) : 2 channels
Sampling rate : 48.0 KHz
Stream size : 39.6 MiB (11%)
Alignment : Aligned on interleaves
Interleave, duration : 24 ms (0.72 video frame)
Writing library : LAME3.98.2

Ghost.Lab.S02E10.Path.Of.A.Killer.WS.DSR.XviD.TVrip-[NY2].avi 367.65 MB
Gathering some info...

Register and log in Isohunt and see no captcha anymore!

4000 symbols left
Hash e0226208a1e5a46a59d886e8dde3c0ceb2cb46bc

Related torrents for "Ghost Lab S02E10 Path Of A Killer WS DSR XviD TVrip-[NY2] avi"

Torrent search:

season 02 hdtv episode 10