imdb
rating

3.0
The Dead Undead

The Dead Undead (2010)

Action, Horror, Science Fiction

Full description
quality   dvdrip x264 hd bd screener dvdr dvd

The Dead Undead 2010 DVDRiP XViD-Jaybob

Size 904.408 MB   0 seeders     Added 2010-12-28 22:04:04

Stream torrent
Starting‥ You need BitLord! Get it from BitLord.com
6.7
To download or stream you need BitLord. Visit them at BitLord.com

thedeadundead2010.jpg



plot.png



Genre : Action / Horror / Sc-Fi



Plot : A group of peaceful Vampires are infected and turned into crazed zombie like creatures whose only motivation is to feed on flesh, whether Human or Vampire. A group of Vamprie commandos tries to keep their identity secret, while trying to stop the spread of the infection. Soldiers from across the ages, it's up to these vampires to end the zombie infection. Caught in the middle is a group of human kids on a camping trip, who team up with the Vampires in an attempt to survive.

info.png

General

Complete name : C:/The Dead Undead {2010} DVDRIP. JaybobThe Dead Undead.avi

Format : AVI

Format/Info : Audio Video Interleave

File size : 854 MiB

Duration : 1h 29mn

Overall bit rate : 1 341 Kbps

Writing application : Lavf51.12.1



Video

Format : xvid

Codec ID : xvid

Duration : 1h 29mn

Bit rate : 1 199 Kbps

Width : 640 pixels

Height : 352 pixels

Display aspect ratio : 16:9

Frame rate : 29.970 fps

Bits/(Pixel*Frame) : 0.178

Stream size : 764 MiB (89%)



Audio

ID : 1

Format : MPEG Audio

Format version : Version 1

Format profile : Layer 3

Mode : Joint stereo

Codec ID : 55

Codec ID/Hint : MP3

Duration : 1h 29mn

Bit rate mode : Constant

Bit rate : 128 Kbps

Channel(s) : 2 channels

Sampling rate : 44.1 KHz

Stream size : 81.6 MiB (10%)

Alignment : Aligned on interleaves

Interleave, duration : 26 ms (0.78 video frame)

Interleave, preload duration : 26 ms



http://www.imdb.com/title/tt0923653/

screens.png



vlcsnap1303302.png

vlcsnap1304649.png

vlcsnap1302547.png

vlcsnap1303751.png

vlcsnap1303886.png




The Dead Undead 2010 DVDRiP XViD-Jaybob/Sample/The Dead Undead_Sample.avi 8.554 MB
The Dead Undead 2010 DVDRiP XViD-Jaybob/ST.txt 52 B
The Dead Undead 2010 DVDRiP XViD-Jaybob/The Dead Undead.avi 895.855 MB
Gathering some info...

Register and log in Isohunt and see no captcha anymore!

4000 symbols left
Hash 7909b237476b61e031bf81882c8266778f887b70

Related torrents for "The Dead Undead 2010 DVDRiP XViD-Jaybob"

Torrent search:

dvdrip 2010