imdb
rating

6.2
Tomorrow, When the War Began

Tomorrow, When the War Began (2010)

Action, Adventure, Thriller, War

Full description
quality   dvdrip x264 fullhd h264 hd bd

Tomorrow When The War Began 2010 480p BRRiP XViD AC3-HiTM4N

Size 1.835 GB   0 seeders     Added 2010-12-28 22:03:57

Stream torrent
Starting‥ You need BitLord! Get it from BitLord.com
To download or stream you need BitLord. Visit them at BitLord.com

tomorrowwhenthewarbegan.jpg



|HiTM4N PRESENTS|



48874973695367351744.png



Tomorrow When The War Began 2010 480p BRRiP XViD AC3-HiTM4N 28|12|2010 General

Format: AVI

File size: 1.68 GiB

Duration: 1h 43mn

Overall bit rate: 2 322 Kbps

IMDb Rating: 7.5/10

Genre: Action | Adventure | Drama

Release: 4 November 2010

Subs: N/A

Language: English

IMDb Link: http://www.imdb.com/title/tt1456941/

Trailer: http://www.youtube.com/watch?v=f_KhErNyiq8

Video Source: 1080p.BluRay.x264-aAF

Audio Source: 1080p.BluRay.x264-aAF

Sample: Yes Video

FourCC: XviD

Matrix: H.263

BVOP: Yes

QPel: No

GMC: No

Bit rate: 1 869 Kbps

Resolution: 720 x 304

DAR: 2.35:1

FPS: 24.000 fps

Bit depth: 8 bits

QF: 0.356

Stream size: 1.35 GiB Audio

Format: AC3-5.1

Bit rate: 448 Kbps

Channels: 6 channels

Sampling rate: 48.0 KHz

Bit rate mode: Constant



89524873606771859129.png



Stream size: 332 MiB



When their country is invaded and their families are taken, eight

unlikely high school teenagers band together to fight Tagline:



Stream size: 332 MiB



When their country is invaded and their families are taken, eight

unlikely high school teenagers band together to fight Tagline:



84434050717770922575.png



Where Were You When Everything Changed?



Caitlin Stasey...Ellie Linton

Rachel Hurd-Wood...Corrie Mackenzie

Lincoln Lewis...Kevin Holmes

Deniz Akdeniz...Homer Yannos

Phoebe Tonkin...Fiona Maxwell

Chris Pang...Lee Takkam

Ashleigh Cummings...Robyn Mathers GREETZ



ELEKTRI4KA | Joshua08 | CRYS | BMB | LUSi

TH0RN | DiLLoN | Killerhz | iNK | Noir

bigimac | YeFsTe | skillz | THC | LEGi0N

FLAWL3SS | IMAGiNE | HiVE-CM8 | Rx |



95521316153253938506.png



vlcsnap2010122820h52m19.png

vlcsnap2010122820h52m45.png

vlcsnap2010122820h52m34.png

vlcsnap2010122820h48m17.png

vlcsnap2010122820h49m32.png




Tomorrow When The War Began 2010 480p BRRiP XViD AC3-HiTM4N/HiTM4N.nfo 2.898 KB
Tomorrow When The War Began 2010 480p BRRiP XViD AC3-HiTM4N/sample.avi 29.696 MB
Tomorrow When The War Began 2010 480p BRRiP XViD AC3-HiTM4N/ST.txt 52 B
Gathering some info...

Register and log in Isohunt and see no captcha anymore!

4000 symbols left
Hash 5d7fb7ae5dfd6cc68b0ab21847bc1555b6ff0e93

Related torrents for "Tomorrow When The War Began 2010 480p BRRiP XViD AC3-HiTM4N"

Torrent search:

2010 bd