MILF UNRATED 2010 DvDRip H264 Feel-Free

Size 742.349 MB   0 seeders     Added 2010-12-29 04:08:22

Stream torrent
Starting‥ You need BitLord! Get it from BitLord.com
To download or stream you need BitLord. Visit them at BitLord.com

51fvhWMLDDL_SS500_.jpg





Genre:Comedy

Language:English

IMDb:http://www.imdb.com/title/tt1730704/

Source:UNRATED.NTSC.DVDR.Thx





Format : MPEG-4

Format profile : Base Media

Codec ID : isom

File size : 706 MiB

Duration : 1h 28mn

Overall bit rate : 1 118 Kbps





Video

Codec ID : avc1

Codec ID/Info : Advanced Video Coding

Duration : 1h 28mn

Bit rate mode : Variable

Bit rate : 951 Kbps

Width : 720 pixels

Height : 384 pixels

Display aspect ratio : 1.875

Frame rate mode : Constant

Frame rate : 23.976 fps

Original frame rate : 23.000 fps

Color space : YUV

Chroma subsampling : 4:2:0

Bit depth : 8 bits

Scan type : Progressive

Bits/(Pixel*Frame) : 0.143

Stream size : 600 MiB (85%)





Audio

ID : 1

Format : AAC

Format/Info : Advanced Audio Codec

Format version : Version 4

Format profile : LC

Codec ID : 40

Duration : 1h 28mn

Bit rate mode : Constant

Bit rate : 160 Kbps

Channel(s) : 2 channels

Channel positions : Front: L R

Sampling rate : 48.0 KHz

Stream size : 101 MiB (14%)

Language : English





Plot:

A group of nerdy college guys who can't seem to connect with girls their own age discover the excitement of hooking up with sexy older women.



TRAILER:

[embed=youtube]http://www.youtube.com/watch?v=AL7v62XQ9Q0&feature=player_embedded[/embed]



vlcsnap2010122822h27m49.png

vlcsnap2010122822h27m54.png

vlcsnap2010122822h28m54.png

vlcsnap2010122822h29m11.png

vlcsnap2010122822h28m09.png



Greets:



INK,CRYS,IMAGINE,LKRG,FXG,3Li,FLAWL3SS,TA,ViSiON,LU,PrisM,Noir,WBZ,LAP,Rx,Kingdom,SAFCuk009+Fabreezy,HDLiTE,TWiZTED,ExtraTorrentRG.ELEKTRI4KA,MAGNAT,CM8

And to all the other p2p grps past and present




MILF.UNRATED.2010.DvDRip.H264.Feel-Free/51fvhWMLDDL.jpg 41.014 KB
MILF.UNRATED.2010.DvDRip.H264.Feel-Free/MILF.UNRATED.2010.DvDRip.H264.Feel-Free 2.341 KB
MILF.UNRATED.2010.DvDRip.H264.Feel-Free/MILF.UNRATED.2010.DvDRip.H264.Feel-Free.mp4 740.222 MB
Gathering some info...

Register and log in Isohunt and see no captcha anymore!

4000 symbols left
Hash 95930f97549657ca4e9cfb9edf9443f7eda5bebf