imdb
rating

7.8
Oceans

Oceans (2010)

Documentary, Family

Full description

Oceans Trilogy BRRip-720p[Dual-Audio][Hindi-Eng]-RedHeart

Size 2.389 GB   0 seeders     Added 2010-12-29 15:04:46

Stream torrent
Starting‥ You need BitLord! Get it from BitLord.com
9.4
To download or stream you need BitLord. Visit them at BitLord.com

72372527.jpg



Ocean's Trilogy



BRRip-720p



[Dual-Audio][Hindi-Eng]



-=[RedHeart]=-



Ocean's Eleven 720p BRRip



<table width="90%" border="0" align="center" cellpadding="0" cellspacing="0">
<tr>
<td class="quotecodeheader"> Quote:</td>
</tr>
<tr>
<td class="quotebody">General

Complete name : Ocean's Trilogy BRRip-720p[Dual-Audio][Hindi-Eng]-RedHeartOcean's 11 BRRip-720p[Dual-Audio][Hindi-Eng]-RedHeart.mkv

Format : Matroska

File size : 706 MiB

Duration : 1h 56mn

Overall bit rate : 846 Kbps



Video

ID : 1

Format : AVC

Format/Info : Advanced Video Codec

Duration : 1h 56mn

Nominal bit rate : 701 Kbps

Width : 1 280 pixels

Height : 528 pixels

Display aspect ratio : 2.40:1

Frame rate : 23.976 fps

Title : RedHeart





Audio #1

ID : 2

Format : AAC

Format/Info : Advanced Audio Codec

Format version : Version 4

Format profile : LC

Format settings, SBR : Yes

Format settings, PS : No

Codec ID : A_AAC

Duration : 1h 56mn

Channel(s) : 2 channels

Channel positions : Front: L R

Sampling rate : 48.0 KHz

Compression mode : Lossy

Title : RedHeart

Language : English



Audio #2

ID : 3

Format : AC-3

Format/Info : Audio Coding 3

Mode extension : CM (complete main)

Codec ID : A_AC3

Duration : 1h 56mn

Bit rate mode : Constant

Bit rate : 128 Kbps

Channel(s) : 6 channels

Channel positions : Front: L C R, Side: L R, LFE

Sampling rate : 44.1 KHz

Bit depth : 16 bits

Compression mode : Lossy

Video delay : 290ms

Stream size : 107 MiB (15%)

Title : RedHeart

Language : Hindi</td>
</tr>
</table>

vlcsnap2010122823h26m03.png

vlcsnap2010122823h27m59.png

vlcsnap2010122823h29m10.png

vlcsnap2010122823h31m13.png

vlcsnap2010122823h31m54.png

vlcsnap2010122823h31m57.png



Ocean's Twelve 720p BRRip

24d59ec4.jpg



<table width="90%" border="0" align="center" cellpadding="0" cellspacing="0">
<tr>
<td class="quotecodeheader"> Quote:</td>
</tr>
<tr>
<td class="quotebody">General

Complete name : Ocean's Trilogy BRRip-720p[Dual-Audio][Hindi-Eng]-RedHeartOcean's 12 BRRip-720p[Dual-Audio][Hindi-Eng]-RedHeart.mkv

Format : Matroska

File size : 764 MiB

Duration : 2h 5mn

Overall bit rate : 852 Kbps



Video

ID : 1

Format : AVC

Format/Info : Advanced Video Codec

Duration : 2h 5mn

Nominal bit rate : 712 Kbps

Width : 1 280 pixels

Height : 528 pixels

Display aspect ratio : 2.40:1

Frame rate : 23.976 fps

Title : RedHeart



Audio #1

ID : 2

Format : AAC

Format/Info : Advanced Audio Codec

Format version : Version 4

Format profile : LC

Format settings, SBR : Yes

Format settings, PS : No

Codec ID : A_AAC

Duration : 2h 5mn

Channel(s) : 2 channels

Channel positions : Front: L R

Sampling rate : 48.0 KHz

Compression mode : Lossy

Title : RedHeart

Language : English



Audio #2

ID : 3

Format : AC-3

Format/Info : Audio Coding 3

Mode extension : CM (complete main)

Codec ID : A_AC3

Duration : 2h 5mn

Bit rate mode : Constant

Bit rate : 128 Kbps

Channel(s) : 2 channels

Channel positions : Front: L R

Sampling rate : 48.0 KHz

Bit depth : 16 bits

Compression mode : Lossy

Stream size : 115 MiB (15%)

Title : RedHeart

Language : Hindi</td>
</tr>
</table>



vlcsnap2010122823h36m53.png

vlcsnap2010122823h40m05.png

vlcsnap2010122823h40m55.png

vlcsnap2010122823h43m58.png

vlcsnap2010122823h44m15.png

vlcsnap2010122823h44m25.png



Ocean's Thirteen 720p BRRip

d7a2a364.jpg



<table width="90%" border="0" align="center" cellpadding="0" cellspacing="0">
<tr>
<td class="quotecodeheader"> Quote:</td>
</tr>
<tr>
<td class="quotebody">General

Complete name : Ocean's Trilogy BRRip-720p[Dual-Audio][Hindi-Eng]-RedHeartOcean's 13 BRRip-720p[Dual-Audio][Hindi-Eng]-RedHeart.mkv

Format : Matroska

File size : 809 MiB

Duration : 1h 58mn

Overall bit rate : 952 Kbps



Video

ID : 1

Format : AVC

Format/Info : Advanced Video Codec

Duration : 1h 58mn

Nominal bit rate : 726 Kbps

Width : 1 280 pixels

Height : 528 pixels

Display aspect ratio : 2.40:1

Frame rate : 23.976 fps

Title : RedHeart



Audio #1

ID : 2

Format : AAC

Format/Info : Advanced Audio Codec

Format version : Version 4

Format profile : LC

Format settings, SBR : Yes

Format settings, PS : No

Codec ID : A_AAC

Duration : 1h 58mn

Channel(s) : 2 channels

Channel positions : Front: L R

Sampling rate : 48.0 KHz

Compression mode : Lossy

Title : RedHeart

Language : English



Audio #2

ID : 3

Format : AC-3

Format/Info : Audio Coding 3

Mode extension : CM (complete main)

Codec ID : A_AC3

Duration : 1h 58mn

Bit rate mode : Constant

Bit rate : 192 Kbps

Channel(s) : 2 channels

Channel positions : Front: L R

Sampling rate : 44.1 KHz

Bit depth : 16 bits

Compression mode : Lossy

Stream size : 163 MiB (20%)

Title : RedHeart

Language : Hindi</td>
</tr>
</table>



vlcsnap2010122823h48m10.png

vlcsnap2010122823h52m02.png

vlcsnap2010122823h52m14.png

vlcsnap2010122823h52m18.png

vlcsnap2010122823h52m21.png

vlcsnap2010122823h58m34.png



Sample

<table width="90%" border="0" align="center" cellpadding="0" cellspacing="0">
<tr>
<td class="quotecodeheader"> Quote:</td>
</tr>
<tr>
<td class="quotebody">

http://www.mediafire.com/?dve5tuu2ttut3lu

http://www.mediafire.com/?629fbyvw7s5zvcq

http://www.mediafire.com/?521cx28azoa0bmo

</td>
</tr>
</table>



Seeding Is Slow So Be Patient.



Give Credit to RedHeart & TDT



Wherever You Share This File Give Proper Credit To RedHeart[ME]



tdtm0.jpg


Ocean's Trilogy BRRip-720p[Dual-Audio][Hindi-Eng]-RedHeart/Ocean's 11 BRRip-720p[Dual-Audio][Hindi-Eng]-RedHeart.mkv 739.992 MB
Ocean's Trilogy BRRip-720p[Dual-Audio][Hindi-Eng]-RedHeart/Ocean's 12 BRRip-720p[Dual-Audio][Hindi-Eng]-RedHeart.mkv 800.637 MB
Ocean's Trilogy BRRip-720p[Dual-Audio][Hindi-Eng]-RedHeart/Ocean's 13 BRRip-720p[Dual-Audio][Hindi-Eng]-RedHeart.mkv 847.988 MB
Gathering some info...

Register and log in Isohunt and see no captcha anymore!

4000 symbols left
Hash 3c4bca551b9d67989cfd168388194d47cf2a49e1

Related torrents for "Oceans Trilogy BRRip-720p[Dual-Audio][Hindi-Eng]-RedHeart"

Torrent search:

english hd hindi bd