Pathey Holo Deri (1957) – Uttam Kumar – Suchitra Sen Classic

Size 1.123 GB   0 seeders     Added 2010-12-29 16:01:42

Stream torrent
Starting‥ You need BitLord! Get it from BitLord.com
10
To download or stream you need BitLord. Visit them at BitLord.com
<center>dvd_pathe_holo_deri.jpg

Direction: Agradoot

Story: - Prativa Basu

Music Direction: Robin Chatterjee

Lyric: Gouri Prasanna Majumdar

Cast: Uttam Kumar, Suchitra Sen, Chhabi Biswas,
Pahadi Sanyal, Shyam Laha, Sishir Botbal, Chandrabati,
Sobha Sen, Bharati Debi, Kamala Mukherjee , and more…..


Info:-
Video
ID : 224 (0xE0)
Format : MPEG Video
Format version : Version 1
Format settings, BVOP : Yes
Format settings, Matrix : Default
Bit rate mode : Constant
Bit rate : 801 Kbps
Nominal bit rate : 1 152 Kbps
Width : 352 pixels
Height : 288 pixels
Display aspect ratio : 4:3
Frame rate : 25.000 fps
Standard : PAL
Color space : YUV
Bit depth : 8 bits
Scan type : Progressive
Compression mode : Lossy
Bits/(Pixel*Frame) : 0.316
Stream size : 438 MiB (77%)

Audio
ID : 192 (0xC0)
Format : MPEG Audio
Format version : Version 1
Format profile : Layer 2
Bit rate mode : Constant
Bit rate : 224 Kbps
Channel(s) : 2 channels
Sampling rate : 44.1 KHz
Compression mode : Lossy
Delay relative to video : -120ms
Stream size : 122 MiB (21%)

PotheHoloDeri.jpg</center>
pathe holo deri/Pothe Holo Deri Disc 1.DAT/Pothe Holo Deri Disc 1.DAT 599.173 MB
pathe holo deri/Pothe Holo Deri Disc 2.DAT/Pothe Holo Deri Disc 2.DAT 524.288 MB
Gathering some info...

Register and log in Isohunt and see no captcha anymore!

4000 symbols left
Hash 1a62399cf7f187ee860bb51cd88bebc4c0b15624