imdb
rating

6.7
Serial Mom

Serial Mom (1994)

Comedy, Thriller, Indie

Full description
quality   dvdrip x264 fullhd bd hd h264

Serial Mom (1994)[DVDRip][big dad e™]

Size 1.282 GB   45 seeders     Added 2010-12-30 12:04:16

Stream torrent
Starting‥ You need BitLord! Get it from 1BitLord.com
10
To download or stream you need BitLord. Visit them at BitLord.com

serialmom1994dvdripbigd.jpg

Serial Mom (1994)



Director: John Waters



Serial Mom is a 1994 American satirical comedy film written and directed by John Waters, starring Kathleen Turner as the titular character, Sam Waterston as her husband, and Ricki Lake and Matthew Lillard as her daughter and son. Despite statements to the contrary in the movie, the story is completely fictional. Patty Hearst, Suzanne Somers, Joan Rivers, Traci Lords and Brigid Berlin make cameo appearances in the film.



Movies by Waters' creative influences, including Russ Meyer, Otto Preminger, William Castle, and Herschell Gordon Lewis, are seen playing on television sets throughout the film.



The film was screened out of competition at the 1994 Cannes Film Festival.



Though the beginning of the movie says that everything in it is true, when questioned John Waters said he made it up, as a gag.



The films which Waters made in the eighties and early ninetes, such as Hairspray and Cry-Baby, were slightly less harsh-edged than his eadiest work. In Serial Mom, he harks back in terms of violence to those earliest projects, although in other ways he moves more directly towards the commercial mainstream. Serial Mom particularly recalls Multiple Maniacs, which was inspired by the Sharon Tate murder and featured Divine as a mass murderer who dailies en route to damnation with a perverted nun. No Divine this time, but rather Kathleen Turner as an apparently immaculate mother and housekeeper who, as the title suggests, has latent psychotic tendencies.



As it has in common with his earliest films a tendency towards grotesquely and blackly humorous murders, Serial Mom matches Water's more recent work in terms of being slick and stylish. Turner is good as a sort of twisted Hyacinth Bucket with teeth, and the usual catchy sound track of Water's films adds to the fun. Waters, in some ways a Russ Meyer sans mammary obsession, here largely succeeds in marrying the style of his 1980s and 90s films with the carnal excess of his 70s work if somewhat toned down.



Great (if dark) fun.



Media Info:

General

Complete name : J:SeedingSerial Mom (1994)[DVDRip][big_dad_e™]Serial Mom (1994)[DVDRip][big_dad_e™].AVI

Format : AVI

Format/Info : Audio Video Interleave

File size : 1.19 GiB

Duration : 1h 33mn

Overall bit rate : 1 832 Kbps



Video

ID : 0

Format : MPEG-4 Visual

Format profile : Simple@L3

Format settings, BVOP : No

Format settings, QPel : No

Format settings, GMC : No warppoints

Format settings, Matrix : Default (H.263)

Codec ID : XVID

Codec ID/Hint : XviD

Duration : 1h 33mn

Bit rate : 1 499 Kbps

Width : 708 pixels

Height : 390 pixels

Display aspect ratio : 1.614

Frame rate : 23.976 fps

Color space : YUV

Chroma subsampling : 4:2:0

Bit depth : 8 bits

Scan type : Progressive

Bits/(Pixel*Frame) : 0.226

Stream size : 1 000 MiB (82%)

Writing library : XviD 1.1.2 (UTC 2006-11-01)



Audio

ID : 1

Format : MPEG Audio

Format version : Version 1

Format profile : Layer 3

Mode : Joint stereo

Codec ID : 55

Codec ID/Hint : MP3

Duration : 1h 33mn

Bit rate mode : Constant

Bit rate : 320 Kbps

Channel(s) : 2 channels

Sampling rate : 48.0 KHz

Stream size : 214 MiB (17%)

Alignment : Split accross interleaves

Interleave, duration : 24 ms (0.58 video frame)

Interleave, preload duration : 287 ms

Writing library : LAME3.98



File Scan:

Malwarebytes' Anti-Malware 1.50.1.1100

www.malwarebytes.org



Database version: 5420



Windows 5.1.2600 Service Pack 3

Internet Explorer 8.0.6001.18702



12/29/2010 9:05:47 PM

mbam-log-2010-12-29 (21-05-47).txt



Scan type: Quick scan

Objects scanned: 6

Time elapsed: 53 second(s)



Memory Processes Infected: 0

Memory Modules Infected: 0

Registry Keys Infected: 0

Registry Values Infected: 0

Registry Data Items Infected: 0

Folders Infected: 0

Files Infected: 0



Memory Processes Infected:

(No malicious items detected)



Memory Modules Infected:

(No malicious items detected)



Registry Keys Infected:

(No malicious items detected)



Registry Values Infected:

(No malicious items detected)



Registry Data Items Infected:

(No malicious items detected)



Folders Infected:

(No malicious items detected)



Files Infected:

(No malicious items detected)

ALWAYS SEED & THANKS SEEDERS!

http://www.imdb.com/title/tt0111127/




Serial Mom (1994)[DVDRip][big_dad_e™]/Serial Mom (1994)[DVDRip][big_dad_e™].AVI 1.282 GB
Serial Mom (1994)[DVDRip][big_dad_e™]/filesharing_not_illegal_yet.jpg 265.077 KB
Serial Mom (1994)[DVDRip][big_dad_e™]/Serial Mom (1994)[DVDRip][big_dad_e™].jpg 29.095 KB
Gathering some info...

Register and log in Isohunt and see no captcha anymore!

4000 symbols left
Hash 56ef345a4c18486fd88e8a857a6c66588cdb4862

Related torrents for "Serial Mom (1994)[DVDRip][big dad e™]"

Torrent search:

dvdrip 1994