Spartacus Blood and Sand [S01.E01] 2010 [720p] BRRip H264 AAC - {29M-TEAM} - 29MHDMOVIE

Size 1.567 GB   0 seeders     Added 2010-12-30 22:04:29

Stream torrent
Starting‥ You need BitLord! Get it from 1BitLord.com
7.5
To download or stream you need BitLord. Visit them at BitLord.com

29M-TEAM HOUSE OF THE 29MMOVIE

http://29m-team.net



29 M-TEAM TRACKER: ---> http://29m-team.net [FREE SIGN-UP NOW]

banner.jpg



Spartacus Blood and Sand [S01.E01] 2010 [720p] BRRip H264 AAC - {29M-TEAM} - 29MHDMOVIE



MAST3R_SpartacusBloodandSandPoster1.jpg



29 M-TEAM PROUDLY PRESENTS



Spartacus Blood and Sand [S01.E01] 2010 [720p] BRRip H264 AAC - {29M-TEAM} - 29MHDMOVIE





Format : MPEG-4

Format profile : Base Media

Codec ID : isom

File size : 1.46 GiB

Duration : 54mn 56s

Overall bit rate : 3 796 Kbps

Encoded date : UTC 2010-12-08 04:58:37

Tagged date : UTC 2010-12-08 04:58:37



Video

ID : 1

Format : AVC

Format/Info : Advanced Video Codec

Format profile : High@L3.1

Format settings, CABAC : Yes

Format settings, ReFrames : 3 frames

Codec ID : avc1

Codec ID/Info : Advanced Video Coding

Duration : 54mn 56s

Bit rate mode : Variable

Bit rate : 3 698 Kbps

Maximum bit rate : 16.9 Mbps

Width : 1 280 pixels

Height : 720 pixels

Display aspect ratio : 16:9

Frame rate mode : Constant

Frame rate : 23.976 fps

Color space : YUV

Chroma subsampling : 4:2:0

Bit depth : 8 bits

Scan type : Progressive

Bits/(Pixel*Frame) : 0.167

Stream size : 1.42 GiB (97%)

Title : Imported with GPAC 0.4.6-DEV (internal rev. 5)

Writing library : x264 core 98 r1649 c54c47d

Encoding settings : cabac=1 / ref=3 / deblock=1:0:0 / analyse=0x3:0x113 / me=hex / subme=7 / psy=1 / psy_rd=1.00:0.00 / mixed_ref=1 / me_range=16 / chroma_me=1 / trellis=1 / 8x8dct=1 / cqm=0 / deadzone=21,11 / fast_pskip=1 / chroma_qp_offset=-2 / threads=3 / sliced_threads=0 / nr=0 / decimate=1 / interlaced=0 / constrained_intra=0 / bframes=3 / b_pyramid=0 / b_adapt=1 / b_bias=0 / direct=1 / weightb=1 / weightp=2 / keyint=250 / keyint_min=25 / scenecut=40 / intra_refresh=0 / rc_lookahead=40 / rc=2pass / mbtree=1 / bitrate=3698 / ratetol=1.0 / qcomp=0.60 / qpmin=10 / qpmax=51 / qpstep=4 / cplxblur=20.0 / qblur=0.5 / ip_ratio=1.40 / aq=1:1.00

Encoded date : UTC 2010-12-08 04:58:37

Tagged date : UTC 2010-12-08 04:59:53



Audio

ID : 2

Format : AAC

Format/Info : Advanced Audio Codec

Format version : Version 4

Format profile : LC

Format settings, SBR : Yes

Format settings, PS : No

Codec ID : 40

Duration : 54mn 56s

Bit rate mode : Variable

Bit rate : 96.0 Kbps

Maximum bit rate : 112 Kbps

Channel(s) : 6 channels

Channel positions : Front: L C R, Side: L R, LFE

Sampling rate : 48.0 KHz

Stream size : 37.7 MiB (3%)

Encoded date : UTC 2010-12-08 04:59:51

Tagged date : UTC 2010-12-08 04:59:53



RiPPER NOTES



Just use ur brain to watch or burn it with ur favorite soft.

x264 show u the best video quality :)





SPECIAL TORRENT FOR ...

29 MAST3RS-TEAM TRACKER - http://29m-team.net

29MMOVIE GROUP by 29 MAST3RS-TEAM [ http://29m-team.net ]



subtitles: rom.pngeng.pngpor.pnghun.pngspa.pngser.png



[align=center]SpartacusBloodandSandScreen3.png



SpartacusBloodandSandScreen2.png



SpartacusBloodandSandScreen1.png[/align]




Spartacus Blood and Sand [S01.E01] 2010 [720p] BRRip H264 AAC - {29M-TEAM} - 29MHDMOVIE/BEST TORRENT TRACKER --- 29 MAST3RS-TEAM [HOUSE of MOVIES, GAMES, APPZ, MUSIC, VIDEOS].txt 39 B
Spartacus Blood and Sand [S01.E01] 2010 [720p] BRRip H264 AAC - {29M-TEAM} - 29MHDMOVIE/SCREENS/Spartacus Blood and Sand [Screen] [1].png 661.669 KB
Spartacus Blood and Sand [S01.E01] 2010 [720p] BRRip H264 AAC - {29M-TEAM} - 29MHDMOVIE/SCREENS/Spartacus Blood and Sand [Screen] [2].png 776.486 KB
Gathering some info...

Register and log in Isohunt and see no captcha anymore!

4000 symbols left
Hash 2a03f6867639a6b3b86f98e8e2a54b31779d6049

Related torrents for "Spartacus Blood and Sand [S01.E01] 2010 [720p] BRRip H264 AAC - {29M-TEAM} - 29MHDMOVIE"

Torrent search:

season 01 episode 01 h264 hd 2010 bd