Most Wanted

Most Wanted (1976)

Crime, Drama

Full description

Musaa - The Most Wanted (2010)1/3 - DVDrIP - X264 - AAC

Size 1.325 GB   0 seeders     Added 2010-12-31 20:04:54

Stream torrent
Starting‥ You need BitLord! Get it from BitLord.com
10
To download or stream you need BitLord. Visit them at BitLord.com
Musaa - The Most Wanted (2010)1/3 - DVDrIP - X264 - AAC

hardim7.jpg

64623_8we5inyn.png

<div class="quote">
Cast.....................: Jackie Shroff ,Sameer Aftab ,Sushant Singh ,Yashpal Sharma
Release Date.............: October 29 2010
Producer.................: Mahendra Bhai Katariya
Director.................: Himanshu Bhatt
Genre....................: Action
Distributor..............: Eros
Runtime..................: 1h 52mn


<div class="quote">General
Complete name : C:UsersAdministratorDocumentsHarshVIDEO_TS-2.m4v
Format : MPEG-4
Format profile : Base Media / Version 2
Codec ID : mp42
File size : 1.23 GiB
Duration : 1h 52mn
Overall bit rate : 1 565 Kbps
Encoded date : UTC 2010-12-31 00:38:40
Tagged date : UTC 2010-12-31 05:36:06
Writing application : HandBrake 0.9.4 2009112300

Video
ID : 1
Format : AVC
Format/Info : Advanced Video Codec
Format profile : High@L3.0
Format settings, CABAC : Yes
Format settings, ReFrames : 3 frames
Codec ID : avc1
Codec ID/Info : Advanced Video Coding
Duration : 1h 52mn
Bit rate mode : Variable
Bit rate : 1 016 Kbps
Width : 720 pixels
Height : 272 pixels
Display aspect ratio : 2.35:1
Original display aspect ratio : 2.35:1
Frame rate mode : Variable
Frame rate : 25.651 fps
Original frame rate : 29.970 fps
Minimum frame rate : 17.123 fps
Maximum frame rate : 29.970 fps
Color space : YUV
Chroma subsampling : 4:2:0
Bit depth : 8 bits
Scan type : Progressive
Bits/(Pixel*Frame) : 0.202
Stream size : 821 MiB (65%)
Writing library : x264 core 79
Encoding settings : cabac=1 / ref=3 / deblock=1:0:0 / analyse=0x3:0x113 / me=hex / subme=7 / psy=1 / psy_rd=1.0:0.0 / mixed_ref=1 / me_range=16 / chroma_me=1 / trellis=1 / 8x8dct=1 / cqm=0 / deadzone=21,11 / chroma_qp_offset=-2 / threads=1 / nr=0 / decimate=1 / mbaff=0 / constrained_intra=0 / bframes=3 / b_pyramid=0 / b_adapt=2 / b_bias=0 / direct=1 / wpredb=1 / wpredp=2 / keyint=300 / keyint_min=30 / scenecut=40 / rc_lookahead=50 / rc=crf / mbtree=1 / crf=20.0 / qcomp=0.60 / qpmin=10 / qpmax=51 / qpstep=4 / ip_ratio=1.40 / aq=1:1.00
Encoded date : UTC 2010-12-31 00:38:40
Tagged date : UTC 2010-12-31 05:36:06
Color primaries : BT.601-6 525, BT.1358 525, BT.1700 NTSC, SMPTE 170M
Transfer characteristics : BT.709-5, BT.1361
Matrix coefficients : BT.601-6 525, BT.1358 525, BT.1700 NTSC, SMPTE 170M

Audio #1
ID : 2
Format : AAC
Format/Info : Advanced Audio Codec
Format version : Version 4
Format profile : LC
Codec ID : 40
Duration : 1h 52mn
Bit rate mode : Variable
Bit rate : 96.0 Kbps
Maximum bit rate : 125 Kbps
Channel(s) : 2 channels
Channel positions : Front: L R
Sampling rate : 48.0 KHz
Compression mode : Lossy
Stream size : 77.0 MiB (6%)
Language : Hindi
Encoded date : UTC 2010-12-31 00:38:40
Tagged date : UTC 2010-12-31 05:36:06

Audio #2
ID : 3
Format : AC-3
Format/Info : Audio Coding 3
Mode extension : CM (complete main)
Codec ID : ac-3
Duration : 1h 52mn
Bit rate mode : Constant
Bit rate : 448 Kbps
Channel(s) : 2 channels
Channel positions : Front: L R
Sampling rate : 48.0 KHz
Bit depth : 16 bits
Compression mode : Lossy
Stream size : 362 MiB (29%)
Language : Hindi
Encoded date : UTC 2010-12-31 00:38:40
Tagged date : UTC 2010-12-31 05:36:06</div></div>
Musaa - The Most Wanted (2010)1.3 - DVDrIP - X264 - AAC/Musaa - The Most Wanted (2010)1.3 - DVDrIP - X264 - AAC.m4v 1.325 GB
Musaa - The Most Wanted (2010)1.3 - DVDrIP - X264 - AAC/Torrent Tracked By Team MJY.txt 345 B
Gathering some info...

Register and log in Isohunt and see no captcha anymore!

4000 symbols left
Hash 126dbcdbf8f9621af997bc9e099c6d3b9202a2d6

Related torrents for "Musaa - The Most Wanted (2010)1/3 - DVDrIP - X264 - AAC"

Torrent search:

dvdrip x264 2010