imdb
rating

8.6
Home

Home (2009)

Documentary

Full description
quality   dvdrip x264 fullhd hdtv hd bd dvdr

Evanescence - Anywhere But Home

Size 1.865 GB   0 seeders     Added 2011-01-01 15:07:05

Stream torrent
Starting‥ You need BitLord! Get it from BitLord.com
10
To download or stream you need BitLord. Visit them at BitLord.com
Format : Matroska
File size : 1.74 GiB
Duration : 57mn 26s
Overall bit rate : 4 330 Kbps
Encoded date : UTC 2010-12-31 19:01:40
Writing application : mkvmerge v4.1.1 ('Bouncin' Back') built on Jul 3 2010 22:54:08
Writing library : libebml v1.0.0 + libmatroska v1.0.0

Video
ID : 1
Format : MPEG Video
Format version : Version 2
Format profile : Main@Main
Format settings, BVOP : No
Format settings, Matrix : Default
Codec ID : V_MPEG2
Codec ID/Info : MPEG 1 or 2 Video
Duration : 57mn 26s
Bit rate mode : Variable
Bit rate : 3 795 Kbps
Nominal bit rate : 7 800 Kbps
Width : 720 pixels
Height : 576 pixels
Display aspect ratio : 16:9
Frame rate : 50.000 fps
Original frame rate : 25.000 fps
Standard : PAL
Color space : YUV
Chroma subsampling : 4:2:0
Bit depth : 8 bits
Scan type : Interlaced
Scan order : Top Field First
Compression mode : Lossy
Bits/(Pixel*Frame) : 0.183
Stream size : 1.52 GiB (88%)
Language : English

Audio
ID : 2
Format : AC-3
Format/Info : Audio Coding 3
Mode extension : CM (complete main)
Muxing mode : Header stripping
Codec ID : A_AC3
Duration : 57mn 26s
Bit rate mode : Constant
Bit rate : 448 Kbps
Channel(s) : 6 channels
Channel positions : Front: L C R, Side: L R, LFE
Sampling rate : 48.0 KHz
Bit depth : 16 bits
Compression mode : Lossy
Video delay : -80ms
Stream size : 184 MiB (10%)
Language : English

Menu
00:00:00.000 : en:Haunted (intro)
00:00:49.440 : en:Haunted
00:03:54.000 : en:Going Under
00:07:45.720 : en:Taking Over Me
00:11:45.240 : en:Everybody's Fool
00:15:16.920 : en:Thoughtless (Korn cover)
00:20:08.640 : en:My Last Breath
00:24:01.440 : en:Farther Away
00:28:48.840 : en:Breathe No More
00:32:38.400 : en:My Immortal
00:37:18.000 : en:Bring Me to Life
00:42:22.200 : en:Tourniquet
00:45:53.160 : en:Imaginary
00:51:35.160 : en:Whisper
Evanescence - Anywhere But Home.mkv 1.865 GB
Gathering some info...

Register and log in Isohunt and see no captcha anymore!

4000 symbols left
Hash 45c5b23a899899a699b12e9dceef7341ea7d4785

Related torrents for "Evanescence - Anywhere But Home"