Lesa Lesa (2002) 1/2 DVDRip - XViD - AAC

Size 1.208 GB   0 seeders     Added 2011-01-01 17:05:24

Stream torrent
Starting‚Ä• You need BitLord! Get it from 1BitLord.com
To download or stream you need BitLord. Visit them at BitLord.com
Lesa Lesa (2002) 1/2 DVDRip - XViD - MP4 - AAC

lessa11.jpg

64623_8we5inyn.png

<div class="quote">General
Complete name : Lesa Lesa (2002) 1.2 DVDRip - XViD - MP4 - AAC.mp4
Format : MPEG-4
Format profile : Base Media
Codec ID : isom
File size : 1.13 GiB
Duration : 2h 34mn
Overall bit rate : 1 046 Kbps

Video
ID : 1
Format : MPEG-4 Visual
Format profile : Simple@L3
Format settings, BVOP : No
Format settings, QPel : No
Format settings, GMC : No warppoints
Format settings, Matrix : Default (H.263)
Codec ID : 20
Duration : 2h 34mn
Bit rate mode : Variable
Bit rate : 978 Kbps
Width : 656 pixels
Height : 272 pixels
Display aspect ratio : 2.40:1
Frame rate mode : Constant
Frame rate : 23.976 fps
Color space : YUV
Chroma subsampling : 4:2:0
Bit depth : 8 bits
Scan type : Progressive
Compression mode : Lossy
Bits/(Pixel*Frame) : 0.229
Stream size : 1.05 GiB (93%)

Audio
ID : 2
Format : AAC
Format/Info : Advanced Audio Codec
Format version : Version 4
Format profile : LC
Codec ID : 40
Duration : 2h 34mn
Bit rate mode : Variable
Bit rate : 64.0 Kbps
Channel(s) : 2 channels
Channel positions : Front: L R
Sampling rate : 44.1 KHz
Compression mode : Lossy
Stream size : 70.5 MiB (6%)
</div>
Lesa Lesa (2002) 1.2 DVDRip - XViD - MP4 - AAC/Lesa Lesa (2002) 1.2 DVDRip - XViD - MP4 - AAC.mp4 1.208 GB
Lesa Lesa (2002) 1.2 DVDRip - XViD - MP4 - AAC/Torrent Tracked By Team MJY.txt 345 B
Gathering some info...

Register and log in Isohunt and see no captcha anymore!

4000 symbols left
Hash e4de2c2075aef4b95f3bbea63b55d66af59c71f3