imdb
rating

6.7
The Fast and the Furious

The Fast and the Furious (2001)

Action, Crime, Thriller

Full description
quality   cam dvdrip x264 h264 bd hd

[DVDRIP]Fast and Furious-1(2001)~x264~aac~Dual Audio[Tamil,English]~Madhan43ver

Size 733.52 MB   0 seeders     Added 2011-01-01 20:03:13

Stream torrent
Starting‥ You need BitLord! Get it from 1BitLord.com
To download or stream you need BitLord. Visit them at BitLord.com

vlcsnap2011010117h49m33.png
File size : 700 MiB
Duration : 1h 46mn
Overall bit rate : 914 Kbps


Video
ID : 1
Format : AVC
Format/Info : Advanced Video Codec
Format profile : High@L4.1
Format settings, CABAC : Yes
Format settings, ReFrames : 3 frames
Codec ID : avc1
Codec ID/Info : Advanced Video Coding
Duration : 1h 46mn
Bit rate mode : Variable
Bit rate : 781 Kbps
Maximum bit rate : 40.0 Mbps
Width : 640 pixels
Height : 304 pixels
Display aspect ratio : 2.2:1
Frame rate mode : Constant
Frame rate : 23.976 fps
Color space : YUV
Chroma subsampling : 4:2:0
Bit depth : 8 bits
Scan type : Progressive
Bits/(Pixel*Frame) : 0.167
Stream size : 597 MiB (85%)

Audio #1
ID : 2
Format : AAC
Format/Info : Advanced Audio Codec
Format version : Version 4
Format profile : LC
Format settings, SBR : Yes
Format settings, PS : No
Codec ID : 40
Duration : 1h 46mn
Bit rate mode : Variable
Bit rate : 66.15 Kbps
Maximum bit rate : 109 Kbps
Channel(s) : 2 channels
Channel positions : Front: L R
Sampling rate : 48.0 KHz
Stream size : 49.8 MiB (7%)

Audio #2
ID : 3
Format : AAC
Format/Info : Advanced Audio Codec
Format version : Version 4
Format profile : LC
Format settings, SBR : Yes
Format settings, PS : No
Codec ID : 40
Duration : 1h 46mn
Bit rate mode : Variable
Bit rate : 66.15 Kbps
Maximum bit rate : 102 Kbps
Channel(s) : 2 channels
Channel positions : Front: L R
Sampling rate : 48.0 KHz
Stream size : 49.8 MiB (7%)

vlcsnap2011010117h49m37.png
[DVDRIP]Fast and Furious-1(2001)~x264~aac~Dual Audio[Tamil,English]~baboo16~TeamIST/Team IST.txt 1.577 KB
[DVDRIP]Fast and Furious-1(2001)~x264~aac~Dual Audio[Tamil,English]~baboo16~TeamIST/[DVDRIP]Fast and Furious-1(2001)~x264~aac~Dual Audio[Tamil,English]~baboo16~TeamIST.mp4 733.518 MB
Gathering some info...

Register and log in Isohunt and see no captcha anymore!

4000 symbols left
Hash bc4c49b94316e74db7c37366ad832906664f7007

Related torrents for "[DVDRIP]Fast and Furious-1(2001)~x264~aac~Dual Audio[Tamil,English]~Madhan43ver"

Torrent search:

dvdrip english 2001 x264