Jazz Planet - Lee Ritenour and Larry Carlton(Larry and Lee)(1995)

Size 94.149 MB   0 seeders     Added 2011-01-02 15:07:34

Stream torrent
Starting‥ You need BitLord! Get it from BitLord.com
To download or stream you need BitLord. Visit them at BitLord.com

torrentcoverx.jpg



LARRY & LEE was nominated for a 1996 Grammy Award for Best Contemporary Jazz Performance.



Larry Carlton and Lee Ritenour have had parallel careers, but this CD is their first joint meeting on record. The two guitarists complement each other well and there are hints of Wes Montgomery along with a tribute to Joe Pass ("Remembering J.P."), but the songs (all of them their originals) are little more than rhythmic grooves most of the time with the usual fadeouts. The consistently lightweight music is reasonably pleasing but never too stimulating. ~ Scott Yanow



All songs written by Lee Ritenour and/or Larry Carlton.



youtubeb.jpg

http://www.youtube.com/watch?v=JfchN7G-oQk

tracklist3.png



1 Crosstown Kids

2 Low Steppin'

3 L.A. 'Underground'

4 Closed Door Jam

5 After The Rain

6 Remembering J. P.

7 Fun In The Dark

8 Lots About Nothin'

9 Take That

10 Up And Adam

11 Reflection Of A Guitar Player



infora.png



General

Complete name : Jazz Planet - Lee Ritenour & Larry Carlton (Larry & Lee)1 - Lee Ritenour & Larry Carlton - Crosstown Kids.mp3

Format : MPEG Audio

File size : 4.62 MiB

Duration : 5mn 2s

Overall bit rate : 128 Kbps

Album : Larry & Lee

Track name : Crosstown Kids

Track name/Position : 01

Performer : Lee Ritenour & Larry Carlton

Genre : Jazz

Released date : 1995

Writing library : LAME3.98.2

Encoding settings : Lavf52.54.0

Comment : Track 1

COMMENT : Track 1



Audio

Format : MPEG Audio

Format version : Version 1

Format profile : Layer 3

Mode : Joint stereo

Mode extension : MS Stereo

Duration : 5mn 2s

Bit rate mode : Constant

Bit rate : 128 Kbps

Channel(s) : 2 channels

Sampling rate : 44.1 KHz

Stream size : 4.62 MiB (100%)

Writing library : LAME3.98.2



General

Complete name : Jazz Planet - Lee Ritenour & Larry Carlton (Larry & Lee)2 - Lee Ritenour & Larry Carlton - Low Steppin'.mp3

Format : MPEG Audio

File size : 5.89 MiB

Duration : 6mn 25s

Overall bit rate : 128 Kbps

Album : Larry & Lee

Track name : Low Steppin'

Track name/Position : 02

Performer : Lee Ritenour & Larry Carlton

Genre : Jazz

Released date : 1995

Encoding settings : Lavf52.54.0

Comment : Track 2

COMMENT : Track 2



Audio

Format : MPEG Audio

Format version : Version 1

Format profile : Layer 3

Mode : Joint stereo

Mode extension : MS Stereo

Duration : 6mn 25s

Bit rate mode : Constant

Bit rate : 128 Kbps

Channel(s) : 2 channels

Sampling rate : 44.1 KHz

Stream size : 5.89 MiB (100%)



downtt.gif

rojo13.gif




Jazz Planet - Lee Ritenour & Larry Carlton (Larry & Lee)/01 - Lee Ritenour & Larry Carlton - Crosstown Kids.mp3 4.847 MB
Jazz Planet - Lee Ritenour & Larry Carlton (Larry & Lee)/02 - Lee Ritenour & Larry Carlton - Low Steppin'.mp3 6.175 MB
Jazz Planet - Lee Ritenour & Larry Carlton (Larry & Lee)/03 - Lee Ritenour & Larry Carlton - L.A. Underground.mp3 5.575 MB
Gathering some info...

Register and log in Isohunt and see no captcha anymore!

4000 symbols left
Hash f0229168f711ea69050a615750d7cca5929f5969