imdb
rating

7.3
Pokkiri

Pokkiri (2007)

Action, Romance

Full description
quality   x264 fullhd bd hd dvdr dvdrip

Pokkiri (2007) ~ BDRip ~ 1080p ~ Subs ~ Chapters ~ x264 ~ DTS ~Madhan43ver

Size 8.537 GB   0 seeders     Added 2011-01-02 19:11:29

Stream torrent
Starting‥ You need BitLord! Get it from BitLord.com
10
To download or stream you need BitLord. Visit them at BitLord.com
vlcsnap2010122521h05m42.png

General

Format : Matroska
File size : 7.95 GiB
Duration : 2h 39mn
Overall bit rate : 7 121 Kbps

Video
ID : 1
Format : AVC
Format/Info : Advanced Video Codec
Format profile : High@L4.1
Format settings, CABAC : Yes
Format settings, ReFrames : 5 frames
Muxing mode : Container profile=Unknown@4.1
Codec ID : V_MPEG4/ISO/AVC
Duration : 2h 39mn
Bit rate : 6 365 Kbps
Width : 1 920 pixels
Height : 816 pixels
Display aspect ratio : 2.35:1
Frame rate : 24.000 fps
Color space : YUV
Chroma subsampling : 4:2:0
Bit depth : 8 bits
Scan type : Progressive
Bits/(Pixel*Frame) : 0.169
Stream size : 6.95 GiB (87%)
Language : Tamil

Audio
ID : 2
Format : DTS
Format/Info : Digital Theater Systems
Codec ID : A_DTS
Duration : 2h 39mn
Bit rate mode : Constant
Bit rate : 755 Kbps
Channel(s) : 6 channels
Channel positions : Front: L C R, Side: L R, LFE
Sampling rate : 48.0 KHz
Bit depth : 24 bits
Stream size : 863 MiB (11%)
Title : Tamil 6Ch DTS @ 768 Kbps
Language : Tamil

Text
ID : 3
Format : UTF-8
Codec ID : S_TEXT/UTF8
Codec ID/Info : UTF-8 Plain Text
Title : English Subtitle
Language : English
Pokkiri (2006) ~ BDRip ~ 1080p ~ Subs ~ Chapters ~ x264 ~ DTS ~ baboo16 ~ Team IST/Pokkiri (2006) ~ BDRip ~ 1080p ~ Subs ~ Chapters ~ x264 ~ DTS ~ baboo16 ~ Team IST.mkv 8.537 GB
Pokkiri (2006) ~ BDRip ~ 1080p ~ Subs ~ Chapters ~ x264 ~ DTS ~ baboo16 ~ Team IST/Team IST.txt 1.577 KB
Gathering some info...

Register and log in Isohunt and see no captcha anymore!

4000 symbols left
Hash 5957283cb68c3f0220d0cfd387792b93feef762b

Related torrents for "Pokkiri (2007) ~ BDRip ~ 1080p ~ Subs ~ Chapters ~ x264 ~ DTS ~Madhan43ver"

Torrent search:

subs x264 2007 fullhd bd