imdb
rating

7.4
Dragons Forever

Dragons Forever (1988)

Action, Comedy, Romance, Foreign

Full description
quality   dvdrip h264 x264 hd bd

Dragons Forever [1988][H264-AAC] DVDrip - CaRNaGE

Size 1.451 GB   0 seeders     Added 2011-01-03 14:06:08

Stream torrent
Starting‥ You need BitLord! Get it from BitLord.com
To download or stream you need BitLord. Visit them at BitLord.com

<span style="color: Blue"><span class="bold">Dragons Forever [1988][H264-AAC] DVDrip - CaRNaGE</span></span>



http://www.imdb.com/title/tt0093015/



Jackie Chan stars as a hot-shot lawyer hired by a Hong Kong chemical plant to dispose of opposition to their polluting ways. But when he falls for a beautiful woman out to stop the plant, Jackie is torn in a conflict of interest and asks his trusty friends Samo and Biao to help out at least until they discover the true purpose of the plant.



IMDb Rating: 7.3 / 10



<span style="color: Green">**** ENGLISH DUBBED 5.1 **** HONG KONG LEGENDS PLATINUM EDITION ****</span>



dragonforevercover.jpg



<span style="color: Yellow"><span class="italics"><span class="bold">Encoding</span></span></span>



<span style="color: Red"><span class="bold">VIDEO</span></span>



Format : MPEG-4 Visual

Format profile : Simple@L1

Format settings, BVOP : No

Format settings, QPel : No

Format settings, GMC : No warppoints

Format settings, Matrix : Default (H.263)

Codec ID : 20

Duration : 1h 30mn

Bit rate mode : Variable

Bit rate : 2 000 Kbps

Width : 720 pixels

Height : 576 pixels

Display aspect ratio : 16:9

Frame rate mode : Constant

Frame rate : 30.000 fps

Standard : PAL

Color space : YUV

Chroma subsampling : 4:2:0

Bit depth : 8 bits

Scan type : Progressive

Bits/(Pixel*Frame) : 0.161

Stream size : 1.26 GiB (93%)

Writing library : Lavc51.40.4

Encoded date : UTC 2010-12-30 11:25:52

Tagged date : UTC 2010-12-30 11:25:52





<span style="color: Red"><span class="bold">AUDIO</span></span>



Format : AAC

Format/Info : Advanced Audio Codec

Format version : Version 4

Format profile : LC

Format settings, SBR : No

Codec ID : 40

Duration : 1h 30mn

Bit rate mode : Variable

Bit rate : 137 Kbps

Channel(s) : 6 channels

Channel positions : Front: L C R, Side: L R, LFE

Sampling rate : 48.0 KHz

Stream size : 88.5 MiB (6%)

Encoded date : UTC 2010-12-30 11:25:52

Tagged date : UTC 2010-12-30 11:25:52







Brought to you by



venomcarnagespiderman24.jpg



<span style="color: Red"><span class="bold">CaRNaGE</span></span>






Dragons Forever [1988][H264-AAC] DVDrip - CaRNaGE/Dragons Forever [1988][H264-AAC] DVDrip - CaRNaGE.mp4 1.451 GB
Dragons Forever [1988][H264-AAC] DVDrip - CaRNaGE/Dragons Forever [1988][H264-AAC] DVDrip - CaRNaGE.nfo 2.8 KB
Dragons Forever [1988][H264-AAC] DVDrip - CaRNaGE/Torrent dowloaded from Ahashare.com.txt 35 B
Gathering some info...

Register and log in Isohunt and see no captcha anymore!

4000 symbols left
Hash 0fe956bba9db1c995f0b8fdfd32c961e9e3e841d

Related torrents for "Dragons Forever [1988][H264-AAC] DVDrip - CaRNaGE"

Torrent search:

dvdrip h264 1988