imdb
rating

6.6
The Polar Express

The Polar Express (2004)

Adventure, Animation, Fantasy, Family

Full description
quality   dvdrip bd x264 fullhd h264 hd

The Polar Express (2004) - DVDRip - x264 - AAC - 500MB -Madhan43ver

Size 525.106 MB   0 seeders     Added 2011-01-03 14:05:59

Stream torrent
Starting‥ You need BitLord! Get it from 1BitLord.com
10
To download or stream you need BitLord. Visit them at BitLord.com
55111694.png

General
Complete name :THE POLAR EXPRESS ORI DVD RIP -TEAM IST.mp4
Format : MPEG-4
Format profile : Base Media / Version 2
Codec ID : mp42
File size : 501 MiB
Duration : 1h 35mn
Overall bit rate : 732 Kbps
Encoded date : UTC 2011-01-02 19:05:12
Tagged date : UTC 2011-01-02 19:31:46


Video
ID : 1
Format : AVC
Format/Info : Advanced Video Codec
Format profile : Main@L3.0
Format settings, CABAC : Yes
Format settings, ReFrames : 3 frames
Codec ID : avc1
Codec ID/Info : Advanced Video Coding
Duration : 1h 35mn
Bit rate mode : Variable
Bit rate : 600 Kbps
Width : 720 pixels
Height : 304 pixels
Display aspect ratio : 2.089
Frame rate mode : Variable
Frame rate : 23.976 fps
Minimum frame rate : 23.974 fps
Maximum frame rate : 23.981 fps
Resolution : 24 bits
Colorimetry : 4:2:0
Scan type : Progressive
Bits/(Pixel*Frame) : 0.114
Stream size : 410 MiB (82%)
Writing library : x264 core 79

Audio
ID : 2
Format : AAC
Format/Info : Advanced Audio Codec
Format version : Version 4
Format profile : LC
Format settings, SBR : No
Codec ID : 40
Duration : 1h 35mn
Bit rate mode : Variable
Bit rate : 128 Kbps
Maximum bit rate : 144 Kbps
Channel(s) : 2 channels
Channel positions : L R
Sampling rate : 48.0 KHz
Resolution : 16 bits
Stream size : 87.4 MiB (17%)
Encoded date : UTC 2011-01-02 19:05:13
Tagged date : UTC 2011-01-02 19:31:46
THE POLAR EXPRESS ORI DVD RIP -TEAM IST.mp4 525.106 MB
Gathering some info...

Register and log in Isohunt and see no captcha anymore!

4000 symbols left
Hash 80c94ee5197764197adb65d339a9459b3ecbc9b4

Related torrents for "The Polar Express (2004) - DVDRip - x264 - AAC - 500MB -Madhan43ver"

Torrent search:

dvdrip 2004 x264