Koizora [Sky of Love] DvdRip

Size 2.668 GB   0 seeders     Added 2011-01-03 18:04:45

Stream torrent
Starting‥ You need BitLord! Get it from BitLord.com
To download or stream you need BitLord. Visit them at BitLord.com
koizora_poster.jpg
<u>

Movie Info:
http://www.imdb.com/title/tt1194664
http://asianmediawiki.com/Koizora

Cast:
Yui Aragaki ... Mika Tahara
Haruma Miura ... Hiro Sakurai

Rest of cast listed alphabetically:
Yûko Asano ... Yasue Tahara - Mika's mother
Yôsuke Asari ... Nozomu
Yumi Asô ... Akemi Sakurai
Aki Fukada ... Saori Tahara
Haru ... Aya
Karina ... Minako
Keisuke Koide ... Yu Fukuhara
Erina Matsui ...
Aoi Nakamura ... Nozomu
George Takahashi ... Katsuji Tahara
Asami Usuda ... Saki
Ryûji Yamamoto ... Hirokazu Sakurai

Director: Natsuki Imai
Writer: Mutsuki Watanabe (screenplay)
Stars: Yui Aragaki, Haruma Miura and Yûko Asano

Genres: Drama | Romance

Language: Japanese
Subtitles: English and Thai [Soft Sub .ssa]

General;
Complete name : D:My DataVideosKoizora - Sky of LoveKoizora - Sky of Love.avi
Format : AVI
Format/Info : Audio Video Interleave
File size : 1 001 MiB
Duration : 2h 8mn
Overall bit rate : 1 085 Kbps
Writing application : VirtualDubMod 1.5.4.1 (build 2178/release)
Writing library : VirtualDubMod build 2178/release

Video
ID : 0
Format : MPEG-4 Visual
Format profile : Advanced Simple@L5
Format settings, BVOP : Yes
Format settings, QPel : No
Format settings, GMC : No warppoints
Format settings, Matrix : Custom
Codec ID : XVID
Codec ID/Hint : XviD
Duration : 2h 8mn
Bit rate : 695 Kbps
Width : 720 pixels
Height : 400 pixels
Display aspect ratio : 16:9
Frame rate : 23.976 fps
Color space : YUV
Chroma subsampling : 4:2:0
Bit depth : 8 bits
Scan type : Progressive
Bits/(Pixel*Frame) : 0.101
Stream size : 640 MiB (64%)
Writing library : XviD 1.2.1 (UTC 2008-12-04)

Audio
ID : 1
Format : AC-3
Format/Info : Audio Coding 3
Mode extension : CM (complete main)
Codec ID : 2000
Duration : 2h 8mn
Bit rate mode : Constant
Bit rate : 384 Kbps
Channel(s) : 6 channels
Channel positions : Front: L C R, Side: L R, LFE
Sampling rate : 48.0 KHz
Bit depth : 16 bits
Stream size : 354 MiB (35%)
Alignment : Split accross interleaves
Interleave, duration : 96 ms (2.30 video frames)
Interleave, preload duration : 96 ms

Storyline;
"Koizora" is a love story that was originally published on the popular cell phone site Mahou no iRando. It was authored by new writer Mika, and is based on her own experiences. The story was released in book form last October, selling more than a million copies in its first month.

The story revolves around Mika (named after the author), who falls in love with her classmate, Hiroki, upon entering high school. But over the course of the novel, she ends up suffering through many trials, such as rape, abortion, and betrayal.

koizorasky.jpg</u>
Koizora [Sky of Love] DvdRip.avi 2.668 GB
Gathering some info...

Register and log in Isohunt and see no captcha anymore!

4000 symbols left
Hash 89d4fd85ad3ce9a2c420df6473a227fd65dfef47

Related torrents for "Koizora [Sky of Love] DvdRip"

Torrent search:

dvdrip