Nagaram (2010)1CD - DVDRip - Lotus - XViD

Size 714.642 MB   0 seeders     Added 2011-01-04 21:02:23

Stream torrent
Starting‥ You need BitLord! Get it from 1BitLord.com
To download or stream you need BitLord. Visit them at BitLord.com
Nagaram (2010)1CD - DVDRip - LOtus - XViD

273qc.jpg

64623_8we5inyn.png

<div class="quote">General
Complete name : Nagaram.avi
Format : AVI
Format/Info : Audio Video Interleave
File size : 682 MiB
Duration : 2h 29mn
Overall bit rate : 637 Kbps
Writing application : MEncoder dev-SVN-r23673-4.2.0
Writing library : MPlayer

Video
ID : 0
Format : MPEG-4 Visual
Format profile : Advanced Simple@L5
Format settings, BVOP : Yes
Format settings, QPel : No
Format settings, GMC : No warppoints
Format settings, Matrix : Default (H.263)
Codec ID : XVID
Codec ID/Hint : XviD
Duration : 2h 29mn
Bit rate : 499 Kbps
Width : 640 pixels
Height : 272 pixels
Display aspect ratio : 2.35:1
Frame rate : 10.000 fps
Color space : YUV
Chroma subsampling : 4:2:0
Bit depth : 8 bits
Scan type : Progressive
Compression mode : Lossy
Bits/(Pixel*Frame) : 0.287
Stream size : 535 MiB (78%)
Writing library : XviD 1.2.0.dev47 (UTC 2006-11-01)

Audio
ID : 1
Format : MPEG Audio
Format version : Version 1
Format profile : Layer 3
Mode : Joint stereo
Mode extension : MS Stereo
Codec ID : 55
Codec ID/Hint : MP3
Duration : 2h 29mn
Bit rate mode : Constant
Bit rate : 128 Kbps
Channel(s) : 2 channels
Sampling rate : 44.1 KHz
Compression mode : Lossy
Video delay : 100ms
Stream size : 137 MiB (20%)
Alignment : Aligned on interleaves
Interleave, duration : 26 ms (0.26 video frame)
Interleave, preload duration : 522 ms
Writing library : LAME3.97</div>
Nagaram (2010)1CD - DVDRip - LOtus - XViD/Nagaram (2010)1CD - DVDRip - LOtus - XViD.avi 714.642 MB
Nagaram (2010)1CD - DVDRip - LOtus - XViD/Torrent Tracked By Team MJY.txt 345 B
Gathering some info...

Register and log in Isohunt and see no captcha anymore!

4000 symbols left
Hash a1e71faaafd2760da1e43d65577d75ff5e1501f4

Related torrents for "Nagaram (2010)1CD - DVDRip - Lotus - XViD"

Torrent search:

dvdrip 2010