imdb
rating

7.6
127 Hours

127 Hours (2010)

Adventure, Drama, Thriller

Full description
quality   screener h264 dvdrip x264 hd bd

127 Hours (2010) UNRATED DVDRip XviD-MAX.torrent

Size 840.368 MB   0 seeders     Added 2011-01-07 00:40:04

Stream torrent
Starting‥ You need BitLord! Get it from 1BitLord.com
To download or stream you need BitLord. Visit them at BitLord.com
Format                           : AVI
Format/Info                      : Audio Video Interleave
Format profile                   : OpenDML
File size                        : 801 MiB
Duration                         : 1h 36mn
Overall bit rate                 : 1 722 Kbps
Writing application              : VirtualDubMod 1.5.10.2 (build 2542/release)
Writing library                  : VirtualDubMod build 2542/release
Original source form             : MAX TORRENTZ
Copyright                        : SIGISMUNT

Video
ID                               : 0
Format                           : MPEG-4 Visual
Format profile                   : AdvancedSimple@L5
Format settings, BVOP            : Yes
Format settings, QPel            : No
Format settings, GMC             : No warppoints
Format settings, Matrix          : Custom
Codec ID                         : XVID
Codec ID/Hint                    : XviD
Duration                         : 1h 36mn
Bit rate                         : 1 527 Kbps
Width                            : 720 pixels
Height                           : 304 pixels
Display aspect ratio             : 2.35:1
Frame rate                       : 23.976 fps
Resolution                       : 24 bits
Colorimetry                      : 4:2:0
Scan type                        : Progressive
Bits/(Pixel*Frame)               : 0.291
Stream size                      : 779 MiB (89%)
Writing library                  : XviD 1.2.1 (UTC 2008-12-04)

Audio
ID                               : 1
Format                           : MPEG Audio
Format version                   : Version 1
Format profile                   : Layer 3
Codec ID                         : 55
Codec ID/Hint                    : MP3
Duration                         : 1h 36mn
Bit rate mode                    : Constant
Bit rate                         : 192 Kbps
Channel(s)                       : 2 channels
Sampling rate                    : 48.0 KHz
Resolution                       : 16 bits
Stream size                      : 70 MiB (11%)
Alignment                        : Aligned on interleaves
Interleave, duration             : 522 ms (12.51 video frames)
Interleave, preload duration     : 216 ms
Writing library                  : LAME3.98.2

 
http://www.imdb.com/title/tt1542344/

Genres: Drama

Storyline

 127 Hours is the true story of mountain climber Aron Ralston's (James Franco) remarkable adventure to save himself after a fallen boulder crashes on his arm and traps him in an isolated canyon in Utah. Over the next five days Ralston examines his life and survives the elements to finally discover he has the courage and the wherewithal to extricate himself by any means necessary, scale a 65 foot wall and hike over eight miles before he is finally rescued. Throughout his journey, Ralston recalls friends, lovers (Clemence Poesy), family, and the two hikers (Amber Tamblyn and Kate Mara) he met before his accident. Will they be the last two people he ever had the chance to meet?

cast:

James Franco   	 ...  	Aron Ralston
Kate Mara 	... 	Christie
Lizzy Caplan 	... 	SonjaClémence Poésy 		
Amber Tamblyn 	... 	Megan
Treat Williams 	... 	Aron's Dad
Kate Burton 	... 	Mrs. Ralston
Darin Southam 	... 	Zach
Elizabeth Hales ... 	Basketball Fan
Peter Joshua Hull ... 	Aron's Future Son
Tye Nelson 	... 	Aron's Friend
Norman Lehnert 	... 	Dan
Priscilla Poland ... 	Bride's Maid
John Lawrence 	... 	Brian
Fenton Quinn 	... 	Blue John 
127 Hours (2010) UNRATED DVDRip XviD-MAX.avi 829.194 MB
127 Hours sample.avi 10.732 MB
Important information about the subtitle files.txt 1.477 KB
Gathering some info...

Register and log in Isohunt and see no captcha anymore!

4000 symbols left
Hash 24D3465237AE80B4305F943519E4255B521BD1EE

Related torrents for "127 Hours (2010) UNRATED DVDRip XviD-MAX.torrent"

Torrent search:

dvdrip 2010