imdb
rating

6.4
Burlesque

Burlesque (2010)

Drama, Romance

Full description

Burlesque (2010) DVDRip XviD-DiAMOND.torrent

Size 850.036 MB   0 seeders     Added 2011-01-07 00:41:54

Stream torrent
Starting‥ You need BitLord! Get it from 1BitLord.com
To download or stream you need BitLord. Visit them at BitLord.com
Format                           : AVI
Format/Info                      : Audio Video Interleave
Format profile                   : OpenDML
File size                        : 810 MiB
Duration                         : 1h 59mn
Overall bit rate                 : 1 722 Kbps
Writing application              : VirtualDubMod 1.5.10.2 (build 2542/release)
Writing library                  : VirtualDubMod build 2542/release
Original source form             : MAX TORRENTZ
Copyright                        : SIGISMUNT

Video
ID                               : 0
Format                           : MPEG-4 Visual
Format profile                   : AdvancedSimple@L5
Format settings, BVOP            : Yes
Format settings, QPel            : No
Format settings, GMC             : No warppoints
Format settings, Matrix          : Custom
Codec ID                         : XVID
Codec ID/Hint                    : XviD
Duration                         : 1h 59mn
Bit rate                         : 1 527 Kbps
Width                            : 720 pixels
Height                           : 304 pixels
Display aspect ratio             : 2.35:1
Frame rate                       : 23.976 fps
Resolution                       : 24 bits
Colorimetry                      : 4:2:0
Scan type                        : Progressive
Bits/(Pixel*Frame)               : 0.291
Stream size                      : 769 MiB (89%)
Writing library                  : XviD 1.2.1 (UTC 2008-12-04)

Audio
ID                               : 1
Format                           : MPEG Audio
Format version                   : Version 1
Format profile                   : Layer 3
Codec ID                         : 55
Codec ID/Hint                    : MP3
Duration                         : 1h 59mn
Bit rate mode                    : Constant
Bit rate                         : 192 Kbps
Channel(s)                       : 2 channels
Sampling rate                    : 48.0 KHz
Resolution                       : 16 bits
Stream size                      : 70 MiB (11%)
Alignment                        : Aligned on interleaves
Interleave, duration             : 522 ms (12.51 video frames)
Interleave, preload duration     : 216 ms
Writing library                  : LAME3.98.2
 
http://www.imdb.com/title/tt1126591/

Genres: Drama | Musical | Romance 

Storyline

 The Burlesque Lounge has its best days behind it. Tess, a retired dancer and owner of the venue, struggles to keep the aging theater alive, facing all kinds of financial and artistic challenges. With the Lounge's troupe members becoming increasingly distracted by personal problems and a threat coming from a wealthy businessman's quest to buy the spot from Tess, the good fortune seems to have abandoned the club altogether. Meanwhile, the life of Ali, a small-town girl from Iowa, is about to change dramatically. Hired by Tess as a waitress at the Lounge, Ali escapes a hollow past and quickly falls in love with the art of burlesque. Backed by newfound friends amongst the theater's crew, she manages to fulfill her dreams of being on stage herself. Things take a dramatic turn though when Ali's big voice makes her become the main attraction of the revue.

cast:

Kristen Bell   	...  	Nikki
Cam Gigandet 	... 	Jack
Stanley Tucci 	... 	Sean
Eric Dane 	... 	Marcus Gerber
Cher 		... 	Tess
Alan Cumming 	... 	Alexis
Christina Aguilera ... 	Ali Rose
Julianne Hough 	... 	Georgia
Peter Gallagher ... 	Vince Scali
Blair Redford 	... 	James
David Walton 	... 	Mark'The DJ'
Tanee McCall 	... 	Scarlett
Wendy Benson-Landes ... Marla
Black Thomas 	... 	Dancer
Stephen Lee 	... 	Dwight 
Burlesque (2010) DVDRip XviD-DiAMOND.avi 849.594 MB
Important information about the subtitle files.txt 1.477 KB
subtitles/Portuguese[Sub].srt 70.578 KB
Gathering some info...

Register and log in Isohunt and see no captcha anymore!

4000 symbols left
Hash 766DCC6F34844181223FF879FA7FAB0F74AC0E02

Related torrents for "Burlesque (2010) DVDRip XviD-DiAMOND.torrent"

Torrent search:

dvdrip 2010