imdb
rating

6.8
Unstoppable

Unstoppable (2010)

Action, Thriller

Full description

Unstoppable (2010) DVDRip XviD By MegaPlay[ENG].torrent

Size 902.056 MB   0 seeders     Added 2011-01-07 01:16:55

Stream torrent
Starting‥ You need BitLord! Get it from 1BitLord.com
To download or stream you need BitLord. Visit them at BitLord.com
Format                           : AVI
Format/Info                      : Audio Video Interleave
Format profile                   : OpenDML
File size                        : 860 MiB
Duration                         : 1h 38mn
Overall bit rate                 : 1 722 Kbps
Writing application              : VirtualDubMod 1.5.10.2 (build 2542/release)
Writing library                  : VirtualDubMod build 2542/release
Original source form             : MAX TORRENTZ
Copyright                        : SIGISMUNT

Video
ID                               : 0
Format                           : MPEG-4 Visual
Format profile                   : AdvancedSimple@L5
Format settings, BVOP            : Yes
Format settings, QPel            : No
Format settings, GMC             : No warppoints
Format settings, Matrix          : Custom
Codec ID                         : XVID
Codec ID/Hint                    : XviD
Duration                         : 1h 38mn
Bit rate                         : 1 527 Kbps
Width                            : 720 pixels
Height                           : 304 pixels
Display aspect ratio             : 2.35:1
Frame rate                       : 23.976 fps
Resolution                       : 24 bits
Colorimetry                      : 4:2:0
Scan type                        : Progressive
Bits/(Pixel*Frame)               : 0.291
Stream size                      : 648 MiB (89%)
Writing library                  : XviD 1.2.1 (UTC 2008-12-04)

Audio
ID                               : 1
Format                           : MPEG Audio
Format version                   : Version 1
Format profile                   : Layer 3
Codec ID                         : 55
Codec ID/Hint                    : MP3
Duration                         : 1h 38mn
Bit rate mode                    : Constant
Bit rate                         : 192 Kbps
Channel(s)                       : 2 channels
Sampling rate                    : 48.0 KHz
Resolution                       : 16 bits
Stream size                      : 70 MiB (11%)
Alignment                        : Aligned on interleaves
Interleave, duration             : 522 ms (12.51 video frames)
Interleave, preload duration     : 216 ms
Writing library                  : LAME3.98.2
 
http://www.imdb.com/title/tt0477080/

Genres: Action | Drama | Thriller

Storyline

 A rail company frantically works to prevent an unmanned, half-mile-long freight train carrying combustible liquids and poisonous gas from wiping out a city.

cast:

Denzel Washington ... 	Frank Barnes
Chris Pine 	... 	Will Colson
Rosario Dawson 	... 	Connie Hooper
Ethan Suplee 		
Jessy Schram 	... 	Darcy Colson
Kevin Dunn 		
Elizabeth Mathis ... 	Nicole
Kevin Chapman 	... 	Bunny
David Warshofsky ... 	Jud
Meagan Tandy 	... 	Maya
Jeff Wincott 	... 	Jesse Gordon
Lew Temple 	... 	Ned Oldham
Victor Gojcaj 		
Andy Umberger 	... 	Janeway
Eric Unger 	... 	Additional Voices 
Important information about the subtitle files.txt 1.477 KB
subtitles/Portuguese[Sub].srt 70.578 KB
subtitles/Spanish[Sub].srt 122.762 KB
Gathering some info...

Register and log in Isohunt and see no captcha anymore!

4000 symbols left
Hash D850E571D954CABDEE31983D67DD33924AA9D2AC

Related torrents for "Unstoppable (2010) DVDRip XviD By MegaPlay[ENG].torrent"

Torrent search:

dvdrip english 2010