imdb
rating

8.3
The Big Bang Theory

The Big Bang Theory (2007)

Comedy

Full description

The Big Bang Theory S04e12 - The Bus Pants Utilization [XviD - Eng Mp3] HDTVRip [TNTVillage]

Size 183.793 MB   0 seeders     Added 2011-01-07 18:34:07

Stream torrent
Starting‥ You need BitLord! Get it from BitLord.com
9.8
To download or stream you need BitLord. Visit them at BitLord.com
info: http://forum.tntvillage.scambioetico.org/tntforum/index.php?showtopic=235556

[IMG]image[/IMG]

Episode 12 - The Bus Pants Utilization

[IMG]image[/IMG][/align]

General
General
Complete name                    : the.big.bang.theory.s04e12.proper.hdtv.xvid-2hd.avi
Format                           : AVI
Format/Info                      : Audio Video Interleave
File size                        : 175 MiB
Duration                         : 21mn 6s
Overall bit rate                 : 1 161 Kbps
Writing application              : MEncoder SVN-r32669-4.3.2
Writing library                  : MPlayer

Video
ID                               : 0
Format                           : MPEG-4 Visual
Format profile                   : Advanced Simple@L5
Format settings, BVOP            : Yes
Format settings, QPel            : No
Format settings, GMC             : No warppoints
Format settings, Matrix          : Default (H.263)
Codec ID                         : XVID
Codec ID/Hint                    : XviD
Duration                         : 21mn 6s
Bit rate                         : 1 023 Kbps
Width                            : 624 pixels
Height                           : 352 pixels
Display aspect ratio             : 16:9
Frame rate                       : 23.976 fps
Color space                      : YUV
Chroma subsampling               : 4:2:0
Bit depth                        : 8 bits
Scan type                        : Progressive
Bits/(Pixel*Frame)               : 0.194
Stream size                      : 154 MiB (88%)
Writing library                  : XviD 1.2.1 (UTC 2008-12-04)

Audio
ID                               : 1
Format                           : MPEG Audio
Format version                   : Version 1
Format profile                   : Layer 3
Mode                             : Joint stereo
Codec ID                         : 55
Codec ID/Hint                    : MP3
Duration                         : 21mn 6s
Bit rate mode                    : Variable
Bit rate                         : 128 Kbps
Channel(s)                       : 2 channels
Sampling rate                    : 48.0 KHz
Stream size                      : 19.0 MiB (11%)
Alignment                        : Aligned on interleaves
Interleave, duration             : 24 ms (0.58 video frame)
Interleave, preload duration     : 522 ms

[IMG]image[/IMG]

[IMG]image[/IMG]

[IMG]image[/IMG]
the.big.bang.theory.s04e12.proper.hdtv.xvid-2hd.avi 183.793 MB
Gathering some info...

Register and log in Isohunt and see no captcha anymore!

4000 symbols left
Hash fa43f8c799010f02217e808158f40b1698f6829a

Related torrents for "The Big Bang Theory S04e12 - The Bus Pants Utilization [XviD - Eng Mp3] HDTVRip [TNTVillage]"

Torrent search:

english season 04 hdtv episode 12