Fragola e cioccolato [DivX - ITA AC3] - Alea (Cuba 1994) [TNTVillage]

Size 2.097 GB   0 seeders     Added 2011-01-12 02:42:00

Stream torrent
Starting‥ You need BitLord! Get it from BitLord.com
10
To download or stream you need BitLord. Visit them at BitLord.com
Fragola e cioccolato

Tomás Gutiérrez Alea (1994)


Orso d'argento e Teddy Award al festival di Berlino 1994; nomination all'Oscar per il miglior film straniero 1995; inserito nella categoria dei Migliori film stranieri del National Board of Review Awards 1994.


.: Scheda del Film :.

Titolo originale: Fresa y chocolate
Nazionalità: Cuba
Anno: 1994
Genere: Drammatico/commedia
Regia: Tomas Gutierrez Alea e Juan Carlos Tabio
Attori principali: Jorge Perugorria, Vladimir Cruz, Mirtha Ibarra, Francisco Gattorno
Soggetto e sceneggiatura: Senel Paz
Fotografia: Mario Garcia Joya
Musiche: Jose Maria Vitier
Scenografia: Fernando Perez O'Reilly
Data di uscita: 11/09/1994


.: Trama :.

Cuba 1979. L'Avana. La storia dell'incontro tra David, un giovane militante comunista ed omosessuale, e Diego, raffinato conoscitore della cultura nazionale.
Una commedia agrodolce, ironica e leggera per affermare la libertà delle idee. Fragola e Cioccolato sono i gusti di gelato preferiti rispettivamente dai gay e dai "veri machi".

"Un film di grande successo diretto dal più importante e rivoluzionario regista cubano". (P. Mereghetti)

Collegamenti interessanti:

    * Scheda del film su IMDB (ID: 0106966)
    * Scheda e recensioni del film su RottenTomatoes (in Inglese)
    * Scheda del film su CinemaGay


.: Dati tecnici :.

Dimensione: 2 GB
Durata: 107'
Codec video:DivX
Codec audio:AC3

Format : AVI
Format/Info : Audio Video Interleave
File size : 1.95 GiB
Duration : 1h 44mn
Overall bit rate : 2 680 Kbps
Writing application : VirtualDubMod 1.5.4.1 (build 2178/release)
Writing library : VirtualDubMod build 2178/release

Video
ID : 0
Format : MPEG-4 Visual
Format settings, BVOP : No
Format settings, QPel : No
Format settings, GMC : No warppoints
Format settings, Matrix : Default (H.263)
Codec ID : DX50
Codec ID/Hint : DivX 5
Duration : 1h 44mn
Bit rate : 2 481 Kbps
Width : 720 pixels
Height : 384 pixels
Display aspect ratio : 1.875
Frame rate : 25.000 fps
Color space : YUV
Chroma subsampling : 4:2:0
Bit depth : 8 bits
Scan type : Progressive
Compression mode : Lossy
Bits/(Pixel*Frame) : 0.359
Stream size : 1.81 GiB (93%)
Writing library : DivX 5.1.1 (Maupiti) (UTC 2003-11-19)

Audio
ID : 1
Format : AC-3
Format/Info : Audio Coding 3
Mode extension : CM (complete main)
Codec ID : 2000
Duration : 1h 44mn
Bit rate mode : Constant
Bit rate : 192 Kbps
Channel(s) : 2 channels
Channel positions : Front: L R
Sampling rate : 48.0 KHz
Bit depth : 16 bits
Compression mode : Lossy
Stream size : 143 MiB (7%)
Alignment : Aligned on interleaves
Interleave, duration : 96 ms (2.40 video frames)
Interleave, preload duration : 96 ms
Language : Italian
Fr4g0L4 3 C10cc0l4t0.avi 2.097 GB
Gathering some info...

Register and log in Isohunt and see no captcha anymore!

4000 symbols left
Hash 18E181FE92F75CDEFEE159D6D2BF1294AB84E25B