imdb
rating

6.5
Hereafter

Hereafter (2010)

Drama, Fantasy

Full description
quality   dvdrip screener cam x264

Hereafter.DVDRip.XviD-TASTE

Size 857.176 MB   0 seeders     Added 2011-01-16 15:22:32

Stream torrent
Starting‥ You need BitLord! Get it from BitLord.com
To download or stream you need BitLord. Visit them at BitLord.com
Format                           : AVI
Format/Info                      : Audio Video Interleave
Format profile                   : OpenDML
File size                        : 817 MiB
Duration                         : 2h 09mn
Overall bit rate                 : 1 722 Kbps
Writing application              : VirtualDubMod 1.5.10.2 (build 2542/release)
Writing library                  : VirtualDubMod build 2542/release
Original source form             : MAX TORRENTZ
Copyright                        : SIGISMUNT

Video
ID                               : 0
Format                           : MPEG-4 Visual
Format profile                   : AdvancedSimple@L5
Format settings, BVOP            : Yes
Format settings, QPel            : No
Format settings, GMC             : No warppoints
Format settings, Matrix          : Custom
Codec ID                         : XVID
Codec ID/Hint                    : XviD
Duration                         : 2h 09mn
Bit rate                         : 1 527 Kbps
Width                            : 720 pixels
Height                           : 304 pixels
Display aspect ratio             : 2.35:1
Frame rate                       : 23.976 fps
Resolution                       : 24 bits
Colorimetry                      : 4:2:0
Scan type                        : Progressive
Bits/(Pixel*Frame)               : 0.291
Stream size                      : 731 MiB (89%)
Writing library                  : XviD 1.2.1 (UTC 2008-12-04)

Audio
ID                               : 1
Format                           : MPEG Audio
Format version                   : Version 1
Format profile                   : Layer 3
Codec ID                         : 55
Codec ID/Hint                    : MP3
Duration                         : 2h 09mn
Bit rate mode                    : Constant
Bit rate                         : 192 Kbps
Channel(s)                       : 2 channels
Sampling rate                    : 48.0 KHz
Resolution                       : 16 bits
Stream size                      : 71 MiB (11%)
Alignment                        : Aligned on interleaves
Interleave, duration             : 522 ms (12.51 video frames)
Interleave, preload duration     : 216 ms
Writing library                  : LAME3.98.2
 
http://www.imdb.com/title/tt1212419/

Genres: Drama

Storyline

 A drama centered on three people who are haunted by mortality in different ways. George (Damon) is a blue-collar American who has a special connection to the afterlife. On the other side of the world, Marie (de France), a French journalist, has a near-death experience that shakes her reality. And when Marcus (Frankie/George McLaren), a London schoolboy, loses the person closest to him, he desperately needs answers. Each on a path in search of the truth, their lives will intersect, forever changed by what they believe might-or must-exist in the hereafter.

cast:

Matt Damon   	 ...  	George
Bryce Dallas Howard ... Melanie
Jenifer Lewis 	... 	Candace
Cécile De France ... 	Marie LeLay
Jay Mohr 	... 	Billy
Derek Jacobi 	... 	Himself
Richard Kind 	... 	Christos
Mylène Jampanoï 		
Steve Schirripa ... 	Carlo
Lyndsey Marshal 		
Marthe Keller 	... 	Dr. Rousseau
Niamh Cusack 		
Fileena Bahris 	... 	Tsunami Survivor
Nikki Harrup 	... 	Waitress
Frankie McLaren ... 	Marcus 
Hereafter.DVDRip.XviD-TASTE.avi 856.734 MB
Important information about the subtitle files.txt 1.477 KB
subtitles/Portuguese[Sub].srt 70.578 KB
Gathering some info...

Register and log in Isohunt and see no captcha anymore!

4000 symbols left
Hash D1ACAE89F8759F5212C09D026D31E9597121DAB5

Related torrents for "Hereafter.DVDRip.XviD-TASTE"

Torrent search:

dvdrip