imdb
rating

6.6
Life as We Know It

Life as We Know It (2010)

Comedy, Drama, Romance

Full description

Life as We Know It.DVDRip.XviD-TASTE

Size 736.816 MB   0 seeders     Added 2011-01-16 15:27:28

Stream torrent
Starting‥ You need BitLord! Get it from BitLord.com
To download or stream you need BitLord. Visit them at BitLord.com
Format                           : AVI
Format/Info                      : Audio Video Interleave
Format profile                   : OpenDML
File size                        : 702 MiB
Duration                         : 1h 44mn
Overall bit rate                 : 1 722 Kbps
Writing application              : VirtualDubMod 1.5.10.2 (build 2542/release)
Writing library                  : VirtualDubMod build 2542/release
Original source form             : MAX TORRENTZ
Copyright                        : SIGISMUNT

Video
ID                               : 0
Format                           : MPEG-4 Visual
Format profile                   : AdvancedSimple@L5
Format settings, BVOP            : Yes
Format settings, QPel            : No
Format settings, GMC             : No warppoints
Format settings, Matrix          : Custom
Codec ID                         : XVID
Codec ID/Hint                    : XviD
Duration                         : 1h 44mn
Bit rate                         : 1 527 Kbps
Width                            : 720 pixels
Height                           : 304 pixels
Display aspect ratio             : 2.35:1
Frame rate                       : 23.976 fps
Resolution                       : 24 bits
Colorimetry                      : 4:2:0
Scan type                        : Progressive
Bits/(Pixel*Frame)               : 0.291
Stream size                      : 678 MiB (89%)
Writing library                  : XviD 1.2.1 (UTC 2008-12-04)

Audio
ID                               : 1
Format                           : MPEG Audio
Format version                   : Version 1
Format profile                   : Layer 3
Codec ID                         : 55
Codec ID/Hint                    : MP3
Duration                         : 1h 44mn
Bit rate mode                    : Constant
Bit rate                         : 192 Kbps
Channel(s)                       : 2 channels
Sampling rate                    : 48.0 KHz
Resolution                       : 16 bits
Stream size                      : 68 MiB (11%)
Alignment                        : Aligned on interleaves
Interleave, duration             : 522 ms (12.51 video frames)
Interleave, preload duration     : 216 ms
Writing library                  : LAME3.98.2
 
http://www.imdb.com/title/tt1055292/

Genres: Comedy | Drama

Storyline

 Two single adults become caregivers to an orphaned girl when their mutual best friends die in an accident.

cast:

Katherine Heigl   ...  	Holly Berenson
Josh Duhamel 	... 	Eric Messer
Josh Lucas 	... 	Sam
Alexis Clagett 	... 	Sophie
Brynn Clagett 	... 	Sophie
Brooke Clagett 	... 	Sophie
Hayes MacArthur ... 	Peter Novak
Christina Hendricks ... Alison Novack
Sarah Burns 	... 	Janine Groff
Jessica St. Clair ... 	Beth
Brooke Liddell 	... 	Older Sophie
Kiley Liddell 	... 	Older Sophie
Britt Flatmo 	... 	Amy
Rob Huebel 	... 	Ted
Melissa McCarthy ... 	DeeDee 
Important information about the subtitle files.txt 1.477 KB
Life as We Know It.DVDRip.XviD-TASTE.avi 736.374 MB
subtitles/Portuguese[Sub].srt 70.578 KB
Gathering some info...

Register and log in Isohunt and see no captcha anymore!

4000 symbols left
Hash BD8A9A51C266FF1E36757C5AE12FA8EDBBC085E6

Related torrents for "Life as We Know It.DVDRip.XviD-TASTE"

Torrent search:

dvdrip