Lloyd - Lay It Down(HD)720p(RaHuL {tHe HuNk})

Size 74.623 MB   0 seeders     Added 2011-01-22 00:06:34

Stream torrent
Starting‥ You need BitLord! Get it from BitLord.com
10
To download or stream you need BitLord. Visit them at BitLord.com
screenshot
\nimage
\n
\nMedia Info-
\nGeneral
\nComplete name :Lloyd - Lay It Down.mp4
\nFormat : MPEG-4
\nFormat profile : Base Media
\nCodec ID : isom
\nFile size : 71.2 MiB
\nDuration : 4mn 1s
\nOverall bit rate : 2 477 Kbps
\nWriting application : Lavf52.34.0
\n
\nVideo
\nID : 1
\nFormat : AVC
\nFormat/Info : Advanced Video Codec
\nFormat profile : High@L3.1
\nFormat settings, CABAC : Yes
\nFormat settings, ReFrames : 1 frame
\nCodec ID : avc1
\nCodec ID/Info : Advanced Video Coding
\nDuration : 4mn 0s
\nBit rate mode : Variable
\nBit rate : 2 348 Kbps
\nWidth : 1 280 pixels
\nHeight : 720 pixels
\nDisplay aspect ratio : 16:9
\nFrame rate mode : Constant
\nFrame rate : 24.000 fps
\nColor space : YUV
\nChroma subsampling : 4:2:0
\nBit depth : 8 bits
\nScan type : Progressive
\nBits/(Pixel*Frame) : 0.106
\nStream size : 67.4 MiB (95%)
\n
\nAudio
\nID : 2
\nFormat : AAC
\nFormat/Info : Advanced Audio Codec
\nFormat profile : LC
\nCodec ID : 40
\nDuration : 4mn 1s
\nBit rate mode : Variable
\nBit rate : 126 Kbps
\nChannel(s) : 2 channels
\nChannel positions : Front: L R
\nSampling rate : 44.1 KHz
\nCompression mode : Lossy
\nStream size : 3.63 MiB (5%)
\n
\nEnjoy-
Lloyd - Lay It Down.mp4 74.623 MB
Gathering some info...

Register and log in Isohunt and see no captcha anymore!

4000 symbols left
Hash 129932a5591687d9efd642b615a5467c1222fea8