Shakira-Gypsy(HD)720p(RaHuL {tHe HuNk})

Size 57.838 MB   0 seeders     Added 2011-01-22 00:03:43

Stream torrent
Starting‥ You need BitLord! Get it from 1BitLord.com
10
To download or stream you need BitLord. Visit them at BitLord.com
screenshot
\nimage
\n
\n
\nDescription:
\nGeneral
\nComplete name :Shakira-Gypsy.mp4
\nFormat : MPEG-4
\nFormat profile : Base Media
\nCodec ID : isom
\nFile size : 55.2 MiB
\nDuration : 3mn 38s
\nOverall bit rate : 2 118 Kbps
\nWriting application : Lavf52.34.0
\n
\nVideo
\nID : 1
\nFormat : AVC
\nFormat/Info : Advanced Video Codec
\nFormat profile : High@L3.1
\nFormat settings, CABAC : Yes
\nFormat settings, ReFrames : 3 frames
\nFormat settings, GOP : M=1, N=12
\nCodec ID : avc1
\nCodec ID/Info : Advanced Video Coding
\nDuration : 3mn 38s
\nBit rate mode : Variable
\nBit rate : 1 988 Kbps
\nWidth : 1 280 pixels
\nHeight : 720 pixels
\nDisplay aspect ratio : 16:9
\nFrame rate mode : Constant
\nFrame rate : 29.970 fps
\nColor space : YUV
\nChroma subsampling : 4:2:0
\nBit depth : 8 bits
\nScan type : Progressive
\nBits/(Pixel*Frame) : 0.072
\nStream size : 51.8 MiB (94%)
\n
\nAudio
\nID : 2
\nFormat : AAC
\nFormat/Info : Advanced Audio Codec
\nFormat profile : LC
\nCodec ID : 40
\nDuration : 3mn 38s
\nBit rate mode : Variable
\nBit rate : 125 Kbps
\nChannel(s) : 2 channels
\nChannel positions : Front: L R
\nSampling rate : 44.1 KHz
\nCompression mode : Lossy
\nStream size : 3.27 MiB (6%)
\n
\nEnjoy-
Shakira-Gypsy.mp4 57.838 MB
Gathering some info...

Register and log in Isohunt and see no captcha anymore!

4000 symbols left
Hash 46c3c6dc69a34ea84a0e864d47f222c97903ce6f