imdb
rating

5.4
Red Riding Hood

Red Riding Hood (2011)

Thriller

Full description

Red Riding Hood [HQ] 2011 DVDRip avi

Size 882.75 MB   0 seeders     Added 2011-01-22 16:36:10

Stream torrent
Starting‥ You need BitLord! Get it from BitLord.com
4.7
To download or stream you need BitLord. Visit them at BitLord.com
Red Riding Hood [HQ] 2011 DVDRip avi
\n
\n
\nFormat : AVI
\nFormat/Info : Audio Video Interleave
\nFormat profile : OpenDML
\nFile size : 1.43 GiB
\nDuration : 2h 28mn
\nOverall bit rate : 1 381 Kbps
\nWriting application : AVI-Mux GUI 1.17.8.3, Feb 16 201019:42:50
\n
\nVideo
\nID : 0
\nFormat : MPEG-4 Visual
\nFormat profile : AdvancedSimple@L5
\nFormat settings, BVOP : Yes
\nFormat settings, QPel : No
\nFormat settings, GMC : No warppoints
\nFormat settings, Matrix : Default (H.263)
\nMuxing mode : Packed bitstream
\nCodec ID : XVID
\nCodec ID/Hint : XviD
\nDuration : 2h 28mn
\nBit rate : 1 185 Kbps
\nWidth : 640 pixels
\nHeight : 272 pixels
\nDisplay aspect ratio : 2.35:1
\nFrame rate : 23.976 fps
\nResolution : 24 bits
\nColorimetry : 4:2:0
\nScan type : Progressive
\nBits/(Pixel*Frame) : 0.284
\nStream size : 1.23 GiB (86%)
\nWriting library : XviD 57
\n
\nAudio
\nID : 1
\nFormat : MPEG Audio
\nFormat version : Version 1
\nFormat profile : Layer 3
\nCodec ID : 55
\nCodec ID/Hint : MP3
\nDuration : 2h 28mn
\nBit rate mode : Constant
\nBit rate : 192 Kbps
\nChannel(s) : 2 channels
\nSampling rate : 48.0 KHz
\nResolution : 16 bits
\nStream size : 203 MiB (14%)
\nAlignment : Aligned on interleaves
\nInterleave, duration : 628 ms (15.07 video frames)
\nInterleave, preload duration : 216 ms
\nTitle : red riding hood
\nWriting library : LAME3.98.2
\n
\nSources: Original DVD+MP3 audio (perfect sync with additional 100% volume) sample included,enjoy
Red Riding Hood [HQ] 2011 DVDRip avi/Red Riding Hood [HQ] 2011 DVDRip avi.avi 882.75 MB
Gathering some info...

Register and log in Isohunt and see no captcha anymore!

4000 symbols left
Hash bb7535aa26941dbc92a0759ea9fe0aee83b8e606

Related torrents for "Red Riding Hood [HQ] 2011 DVDRip avi"

Torrent search:

dvdrip 2011