imdb
rating

5.5
Little Fockers

Little Fockers (2010)

Comedy, Romance

Full description

Little Fockers (2010) DVDRip XviD-MAXSPEED.torrent

Size 1.015 GB   0 seeders     Added 2011-01-23 07:55:21

Stream torrent
Starting‥ You need BitLord! Get it from 1BitLord.com
7.5
To download or stream you need BitLord. Visit them at BitLord.com
File:: Little Fockers (2010) DVDRip XviD-MAXSPEED

Video Source:: ....Team Serenity. Killin it, thx

Audio Source:: ....own, thx matey

Language::English

Genre::Comedy

IMDB::http://www.imdb.com/title/tt0970866/


It has taken 10 years, two little Fockers with wife Pam (Polo) and countless hurdles for Greg to finally get "in" with his tightly wound father-in-law, Jack. After the cash-strapped dad takes a job moonlighting for a drug company, however, Jack's suspicions about his favorite male nurse come roaring back. When Greg and Pam's entire clan-including Pam's lovelorn ex, Kevin (Owen Wilson)-descends for the twins' birthday party, Greg must prove to the skeptical Jack that he's fully capable as the man of the house. But with all the misunderstandings, spying and covert missions, will Greg pass Jack's final test and become the family's next patriarch...or will the circle of trust be broken for good?



Specs::



General



Format : AVI

Format/Info : Audio Video Interleave

Duration : 1h 38mn

Overall bit rate : 1 761 Kbps

Writing application : VirtualDubMod 1.5.10.2 (build 2540/release)

Writing library : VirtualDubMod build 2540/release



Video

ID : 0

Format : MPEG-4 Visual

Format profile : Advanced Simple@L5

Format settings, BVOP : Yes

Format settings, QPel : No

Format settings, GMC : No warppoints

Format settings, Matrix : Default (H.263)

Muxing mode : Packed bitstream

Codec ID : XVID

Codec ID/Hint : XviD

Duration : 1h 38mn

Bit rate : 1 495 Kbps

Width : 720 pixels

Height : 306 pixels

Display aspect ratio : 2.35:1

Frame rate : 25.000 fps

Color space : YUV

Chroma subsampling : 4:2:0

Bit depth : 8 bits

Scan type : Progressive

Bits/(Pixel*Frame) : 0.271

Stream size : 1.16 GiB (85%)

Writing library : XviD 1.2.1 (UTC 2008-12-04)



Audio

ID : 1

Format : MPEG Audio

Format version : Version 1

Format profile : Layer 3

Codec ID : 55

Codec ID/Hint : MP3

Duration : 1h 38mn

Bit rate mode : Constant

Bit rate : 256 Kbps

Channel(s) : 2 channels

Sampling rate : 44.1 KHz

Stream size : 204 MiB (15%)

Alignment : Split accross interleaves

Interleave, duration : 40 ms (1.00 video frame)

Interleave, preload duration : 500 ms



::Why Complain? Whats Free Is Free::



::iNK is currently a free agent looking for work, if you would like iNK's touch, give me a email at: ...digital.ink@live.com or MSN add me.



::We are always looking for friends with unreleased DVD's, Screeners, R5's, Audio, Cams, Silvers,

...and any other good sources you may have to offer - contact us: blackindians@hushmail.com


Demonoid.com.txt 42 B
Little Fockers (2010) DVDRip XviD-MAXSPEED.avi 1.015 GB
Little Fockers (2010) DVDRip XviD-MAXSPEED.nfo 4.858 KB
Gathering some info...

Register and log in Isohunt and see no captcha anymore!

4000 symbols left
Hash 1F3131D2D0B0493989CB1BE74755C9511B5E6883

Related torrents for "Little Fockers (2010) DVDRip XviD-MAXSPEED.torrent"

Torrent search:

dvdrip 2010