NO STRINGS ATTACHED.2011.TS.XViD-T0XiC-iNK

Size 1.203 GB   0 seeders     Added 2011-01-23 19:35:50

Stream torrent
Starting‥ You need BitLord! Get it from BitLord.com
2.3
To download or stream you need BitLord. Visit them at BitLord.com
::::::::::::::Enjoy:Another:Release:::::::::::::::




Video > Movies

File:: NO STRINGS ATTACHED.2011.TS.XViD-T0XiC-iNK

IMDB:: http://www.imdb.com/title/tt1411238/


Video Source:: ....Team Serenity. Killin it, thx

Audio Source:: ....own, thx matey

Language::English


Following the death of his father, Britt Reid, heir to his father's large company,

teams up with his late dad's assistant Kato to become a masked crime fighting team.

Specs::

General

Format : AVI

Format/Info : Audio Video Interleave

Duration : 1h 51mn

Overall bit rate : 1 761 Kbps

Writing application : VirtualDubMod 1.5.10.2 (build 2540/release)

Writing library : VirtualDubMod build 2540/release

Guaranteed working : 100% movie


Video

ID : 0

Format : MPEG-4 Visual

Format profile : Advanced Simple@L5

Format settings, BVOP : Yes

Format settings, QPel : No

Format settings, GMC : No warppoints

Format settings, Matrix : Default (H.263)

Muxing mode : Packed bitstream

Duration : 1h 51mn

Bit rate : 1 495 Kbps

Width : 720 pixels

Height : 306 pixels

Display aspect ratio : 2.35:1

Frame rate : 25.000 fps

Color space : YUV

Chroma subsampling : 4:2:0

Bit depth : 8 bits

Scan type : Progressive

Bits/(Pixel*Frame) : 0.271

Stream size : 1.16 GiB (85%)


Audio

ID : 1

Format : MPEG Audio

Format version : Version 1

Format profile : Layer 3

Codec ID : 55

Codec ID/Hint : MP3

Duration : 1h 51mn

Bit rate mode : Constant

Bit rate : 256 Kbps

Channel(s) : 2 channels

Sampling rate : 44.1 KHz

Stream size : 204 MiB (15%)

Alignment : Split accross interleaves

Interleave, duration : 40 ms (1.00 video frame)

Interleave, preload duration : 500 ms


How To Get Your Maxspeed (uTorrent)

Torrent Client - Preferences - Bandwidth - Number of connections - Set aprox. 500 for each
Torrent Client - Preferences - BiTorrent - Protocol Encryption - Forced
Bandwidth Allocation - High (Set download/upload limit - Unlimited)
Stop Other Active Torrents - Start downloading and wait for connections.
Enjoy and Seed for at least 1:1 ratio. Don't forget to say thanks/leave reviews.
Greets to all actual/future p2p/scene QUALITY groups and affiliate websites.
Don't trust IMDb robot or bad ratings,always watch some trailers first.
Ignore stupid comments/fake/mislabeled/no-DVDrips/CAM/TS/RAR uploads.
Please spread this release/torrent to your friends/forums/etc.
If you need translation subs visit some subtitles sites.
Report if you see online streaming or other spam links.
Recommended movie player VLC PLAYER.

SCREENSHOTS:

http://postimage.org/image/1o1yr7zc4/

http://postimage.org/image/1o222aobo/

http://postimage.org/image/1o25dddb8/

http://postimage.org/image/1o2abzesk/

http://postimage.org/image/1o270wpt0/


NOTES:: Brings you easy Movie Life As always, Enjoy


::Why Complain? Whats Free Is Free:: Be Happy;)


::We are always looking for friends with unreleased DVD's, Screeners, R5's, Audio, Cams, Silvers,



:::::::::::::::::::::::::::::::::::: Respect To :::::::::::::::::::::::::::::::::::::

::IMAGiNE,FLAWL3SS,Hive-CM8,DiGiTALiNK,Tranz,Vik,OneTwo,Joey,bob,& our friends on utn and PA::

"and to all of you who support us, Thank-You" 
NO STRINGS ATTACHED.2011.TS.XViD-T0XiC-iNK/NO STRINGS ATTACHED.2011.TS.XViD-T0XiC-iNK.avi 1.203 GB
Gathering some info...

Register and log in Isohunt and see no captcha anymore!

4000 symbols left
Hash f7ac7fd87dce2e3990fad1dc65681ed36773fbeb