imdb
rating

6.8
TRON: Legacy

TRON: Legacy (2010)

Action, Adventure, Science Fiction

Full description

TRON Legacy (2010) DVDRip XviD-MAXSPEED.torrent

Size 1.066 GB   0 seeders     Added 2011-01-23 21:39:18

Stream torrent
Starting‥ You need BitLord! Get it from 1BitLord.com
To download or stream you need BitLord. Visit them at BitLord.com
File:: TRON Legacy (2010) DVDRip XviD-MAXSPEED
Video Source:: ....Team Serenity. Killin it, thx

Audio Source:: ....own, thx matey

Language::English

Genre::Action | Adventure | Sci-Fi | Thriller

IMDB::http://www.imdb.com/title/tt1104001/


Sam Flynn, the tech-savvy 27-year-old son of Kevin Flynn, looks into his father's disappearance and finds himself pulled into the same world of fierce programs and gladiatorial games where his father has been living for 20 years. Along with Kevin's loyal confidant, father and son embark on a life-and-death journey across a visually-stunning cyber universe that has become far more advanced and exceedingly dangerous. 



Specs::



General



Format : AVI

Format/Info : Audio Video Interleave

Duration : 2h 5mn

Overall bit rate : 1 761 Kbps

Writing application : VirtualDubMod 1.5.10.2 (build 2540/release)

Writing library : VirtualDubMod build 2540/release



Video

ID : 0

Format : MPEG-4 Visual

Format profile : Advanced Simple@L5

Format settings, BVOP : Yes

Format settings, QPel : No

Format settings, GMC : No warppoints

Format settings, Matrix : Default (H.263)

Muxing mode : Packed bitstream

Codec ID : XVID

Codec ID/Hint : XviD

Duration : 2h 5mn

Bit rate : 1 495 Kbps

Width : 720 pixels

Height : 306 pixels

Display aspect ratio : 2.35:1

Frame rate : 25.000 fps

Color space : YUV

Chroma subsampling : 4:2:0

Bit depth : 8 bits

Scan type : Progressive

Bits/(Pixel*Frame) : 0.271

Stream size : 1.16 GiB (85%)

Writing library : XviD 1.2.1 (UTC 2008-12-04)



Audio

ID : 1

Format : MPEG Audio

Format version : Version 1

Format profile : Layer 3

Codec ID : 55

Codec ID/Hint : MP3

Duration : 2h 5mn

Bit rate mode : Constant

Bit rate : 256 Kbps

Channel(s) : 2 channels

Sampling rate : 44.1 KHz

Stream size : 204 MiB (15%)

Alignment : Split accross interleaves

Interleave, duration : 40 ms (1.00 video frame)

Interleave, preload duration : 500 ms



::Why Complain? Whats Free Is Free::



::iNK is currently a free agent looking for work, if you would like iNK's touch, give me a email at: ...digital.ink@live.com or MSN add me.



::We are always looking for friends with unreleased DVD's, Screeners, R5's, Audio, Cams, Silvers,

...and any other good sources you may have to offer - contact us: blackindians@hushmail.com


TRON Legacy (2010) DVDRip XviD-MAXSPEED/Demonoid.com.txt 42 B
TRON Legacy (2010) DVDRip XviD-MAXSPEED/TRON Legacy (2010) DVDRip XviD-MAXSPEED.avi 1.066 GB
TRON Legacy (2010) DVDRip XviD-MAXSPEED/TRON Legacy (2010) DVDRip XviD-MAXSPEED.nfo 4.858 KB
Gathering some info...

Register and log in Isohunt and see no captcha anymore!

4000 symbols left
Hash dd85838f9fc1bbf0f60d2af58b2a97a29ffcf0a7

Related torrents for "TRON Legacy (2010) DVDRip XviD-MAXSPEED.torrent"

Torrent search:

dvdrip 2010