imdb
rating

5.5
From Prada to Nada

From Prada to Nada (2011)

Comedy, Drama, Romance

Full description

From Prada To Nada 2011 TS.XviD-Norar

Size 906.371 MB   0 seeders     Added 2011-01-23 13:39:56

Stream torrent
Starting‥ You need BitLord! Get it from BitLord.com
To download or stream you need BitLord. Visit them at BitLord.com
Format : AVI
Format/Info : Audio Video Interleave
File size : 875 MiB
Overall bit rate : 1 184 Kbps
Writing application : VirtualDubMod 1.5.10.2 (build 2540/release)
Writing library : VirtualDub build 32839/release

Video
ID : 0
Format : MPEG-4 Visual
Format profile : Advanced Simple@L5
Format settings, BVOP : Yes
Format settings, QPel : No
Format settings, GMC : No warppoints
Format settings, Matrix : Custom
Codec ID : XVID
Codec ID/Hint : XviD
Bit rate : 1 042 Kbps
Width : 692 pixels
Height : 294 pixels
Display aspect ratio : 2.35:1
Frame rate : 23.976 fps
Color space : YUV
Chroma subsampling : 4:2:0
Bit depth : 8 bits
Scan type : Progressive
Bits/(Pixel*Frame) : 0.214
Stream size : 805 MiB (88%)
Writing library : XviD 1.2.1 (UTC 2008-12-04)

Audio
ID : 1
Format : MPEG Audio
Format version : Version 1
Format profile : Layer 3
Mode : Joint stereo
Mode extension : MS Stereo
Codec ID : 55
Codec ID/Hint : MP3
Bit rate mode : Variable
Bit rate : 128 Kbps
Channel(s) : 2 channels
Sampling rate : 48.0 KHz
Stream size : 102.2 MiB (11%)
Alignment : Aligned on interleaves
Interleave, duration : 24 ms (0.58 video frame)
Interleave, preload duration : 142 ms
Writing library : LAME3.90.
Encoding settings : -m j -V 4 -q 2 -lowpass 17.6 --abr 128

http://www.imdb.com/title/tt0893412/


Users: (awaiting 5 votes) write review | Critics: 1 reviews

Storyline

A Latina spin on Jane Austen's "Sense and Sensibility," where two spoiled sisters who have been left penniless after their father's sudden death are forced to move in with their estranged aunt in East Los Angeles.

Director:
Angel Gracia
Writer:
Fina Torres (screenplay), Luis Alfaro (screenplay)
Stars:
Camilla Belle, Alexa Vega and Kuno Becker
From Prada To Nada 2011 TS.XviD-Norar.avi 896.886 MB
From Prada To Nada sample.avi 9.486 MB
tracked_and_downloaded_form_torrentday.com.txt 42 B
Gathering some info...

Register and log in Isohunt and see no captcha anymore!

4000 symbols left
Hash 8B65189127C02C231386C2463F36EAFAC70748FB

Related torrents for "From Prada To Nada 2011 TS.XviD-Norar"

Torrent search:

telesync 2011